<?xml version="1.0" standalone="no"?>
<!DOCTYPE svg PUBLIC "-//W3C//DTD SVG 1.1//EN" "http://www.w3.org/Graphics/SVG/1.1/DTD/svg11.dtd" >
<svg xmlns="http://www.w3.org/2000/svg">
<metadata></metadata>
<defs>
<font id="etbookboldlf" horiz-adv-x="1001" >
<font-face units-per-em="2048" ascent="1638" descent="-410" />
<missing-glyph horiz-adv-x="501" />
<glyph horiz-adv-x="2048" />
<glyph horiz-adv-x="2048" />
<glyph unicode="&#xd;" horiz-adv-x="681" />
<glyph unicode=" "  horiz-adv-x="501" />
<glyph unicode="&#x09;" horiz-adv-x="501" />
<glyph unicode="&#xa0;" horiz-adv-x="501" />
<glyph unicode="!" horiz-adv-x="557" d="M164 1305q-2 33 0 53t21.5 37.5t56.5 17.5h73q45 0 64.5 -12t19.5 -37t-2 -59l-69 -926q-12 -25 -43 -30t-52 30zM166 96q0 49 32.5 81t82.5 32q47 0 81.5 -32t34.5 -81t-33.5 -81.5t-83 -32.5t-82 32.5t-32.5 81.5z" />
<glyph unicode="&#x22;" horiz-adv-x="870" d="M129 1229q0 152 123 151q61 0 97 -38.5t36 -102.5q0 -31 -8 -88q-4 -31 -17 -88l-55 -299q-23 -33 -60.5 -22.5t-43.5 49.5l-49 274q-23 121 -23 164zM487 1219q0 162 134 161q59 0 94 -38.5t35 -102.5q0 -65 -23 -178l-57 -295q-16 -39 -57.5 -32t-47.5 34l-51 291 q-2 8 -14.5 67.5t-12.5 92.5z" />
<glyph unicode="#" horiz-adv-x="1431" d="M63 416q2 14 11 63q0 51 65 51h162q14 0 18.5 2.5t6.5 16.5l65 307q0 6 -26 6h-189q-35 0 -54.5 10.5t-17.5 40.5q-2 12 0 25.5t6.5 29t6.5 23.5q4 39 63 43q127 4 236 0q12 0 14 10l76 355q10 49 38.5 55t69.5 -6q41 -4 52.5 -16.5t3.5 -53.5l-66 -319q-2 -8 4 -16.5 t13 -8.5q47 2 174 0t172 0q16 0 18 19q53 258 68 321q6 29 9 39t17.5 22.5t40.5 14.5l47 4q39 2 50.5 -20.5t5.5 -71.5q0 -2 -68 -322q2 -4 27 -6q27 -4 66.5 -3t68.5 -1q49 0 47 -47q-2 -16 -16 -84q-6 -33 -68 -37h-143q-10 0 -16.5 -4t-7.5 -7t-3 -16.5t-2 -15.5 l-59 -278q0 -10 30 -11q80 -2 181 0q43 0 53 -4q35 -10 24 -53l-12 -59q-6 -35 -23.5 -44.5t-52.5 -11.5q-106 -4 -200 0h-21.5t-11.5 -7t-5 -9t-3 -18l-68 -320q-10 -63 -66 -63h-59q-59 0 -45 94q4 27 13.5 67.5t24.5 106t28 123.5q4 27 -19 26q-205 8 -342 0 q-18 -2 -22 -28l-68 -324q-2 -14 -6 -24.5t-10.5 -16.5t-11.5 -10t-15 -6t-16.5 -3t-20.5 -2t-20 -1q-74 -4 -74 51q0 6 3 17.5t3 15.5l66 317q2 8 -1 11t-16 3h-139q-23 0 -34 2t-20.5 15.5t-9.5 40.5zM494 541q0 -4 10 -6l12 -3q125 6 332 0q29 -2 33 19l61 289 q2 12 -6.5 17t-20.5 5q-184 4 -325 0q-25 0 -27 -4q0 -2 -4 -16z" />
<glyph unicode="$" horiz-adv-x="980" d="M63 223q0 39 30 70t69 31q41 0 64.5 -24t43 -80t23.5 -64q6 -14 24 -33q0 2 2 6v4v469q-2 4 -6 8q-123 92 -157 140q-57 74 -58 172q0 94 57.5 168.5t153.5 111.5q10 4 10 23v92q8 27 62 31q31 -6 43 -35v-66l2 -18q39 4 82 0q6 0 6 20v62q4 25 43 35h27q16 0 25 -9.5 t11.5 -27t3.5 -30.5t-1 -31.5t-2 -20.5q0 -20 14 -25q94 -31 154.5 -82t60.5 -112q0 -39 -26.5 -67t-65.5 -28q-20 0 -36.5 6.5t-32 20.5t-23 24.5t-21.5 32t-20 29.5q-2 0 -4 4v-330q0 -23 4 -26q82 -51 132 -90t96 -114t46 -159q0 -115 -74.5 -204t-199.5 -130 q-4 -2 -4 -16q0 -86 2 -141q0 -39 -43 -39h-33q-16 2 -26.5 16.5t-8.5 30.5l2 117q0 16 -14 12q-20 -2 -62 2q-6 2 -9 -3t-3 -17q0 -86 4 -111q4 -35 -29 -47h-57q-31 10 -25 45v27v114q0 14 -14 19q-125 43 -176 96q-66 70 -66 141zM270 991q0 -55 39 -96q8 4 8 16l2 150 l-2 24q-47 -37 -47 -94zM424 520l2 -436q0 -18 8 -18q8 -2 41 -4.5t39 4.5v16v387q0 18 -6 18q-12 8 -35 23t-37 25q0 6 -8 0q-4 -4 -4 -15zM424 825q0 -16 6 -22l4 -6q4 -5 76 -52q4 8 4 13v334q0 23 -4 24q-55 12 -86 6v-6v-291zM618 406q2 -4 3 -7v-268q0 -23 4 -22 q4 0 8 2q78 53 78 155q0 82 -88 146q-6 2 -5 -6z" />
<glyph unicode="%" horiz-adv-x="1425" d="M76 928q0 135 90 224t219 89t222 -86t91 -221t-92 -224t-219 -89q-125 0 -218 88t-93 219zM238 932q0 -100 40.5 -152.5t108.5 -52.5q70 0 111 52t41 155q0 100 -42 150.5t-116 50.5q-66 0 -104.5 -52.5t-38.5 -150.5zM246 -68l786 1352q33 39 72 21l24 -11 q37 -12 19 -61l-782 -1344q-20 -41 -76 -28q-74 18 -43 71zM705 219q0 135 90 224t219 89t222 -87t91 -220q-2 -135 -92 -224t-219 -89q-125 0 -218 88t-93 219zM866 223q0 -98 41 -150.5t109 -52.5q70 0 110.5 52.5t40.5 152.5q1 203 -157 203q-63 0 -103.5 -52t-40.5 -153 z" />
<glyph unicode="&#x26;" horiz-adv-x="1562" d="M72 336q0 164 131 274q59 51 207 117q8 8 4 12q-123 119 -123 254q0 123 90 198t231 75q127 0 214 -64.5t87 -169.5q0 -147 -192 -258q-16 -10 -2 -20q55 -43 139 -123q84 -78 141 -160q8 -14 21 0q61 80 119 164q63 98 92 180q4 20 0 21q-4 2 -13.5 3t-13.5 1 q-14 2 -38.5 4t-30.5 2q-35 16 -23 69q6 27 39 27h8q182 -4 350 2q16 4 30.5 -6t16.5 -29v-26q0 -37 -47 -41q-6 0 -44 -3t-61.5 -9.5t-37.5 -20.5q-23 -23 -74 -113q-14 -27 -33.5 -65.5t-23.5 -44.5q-63 -111 -150 -209q-12 -16 -8 -23q14 -20 36 -59t30 -51 q51 -94 78.5 -121t60.5 -27q47 0 156 74q20 4 40.5 -14.5t22.5 -41t-14 -34.5q-152 -119 -281 -119q-27 0 -50 3t-44.5 12.5t-36 15.5t-32 24.5t-26.5 25.5t-25.5 32.5t-20.5 33t-21.5 39t-21.5 37.5l-13 9q-238 -231 -464 -232q-158 0 -268.5 108.5t-110.5 266.5zM315 360 q0 -104 60.5 -165.5t159.5 -61.5q76 0 162.5 39t152.5 104q18 19 6 27q-143 215 -346 350q-2 2 -14 -8q-98 -72 -139.5 -138.5t-41.5 -146.5zM494 1044q0 -109 116 -204q6 -6 17 0q92 63 92 176q0 68 -33 105.5t-88 37.5q-104 0 -104 -115z" />
<glyph unicode="'" horiz-adv-x="378" d="M72 1221q0 160 116 159q59 0 91 -38.5t32 -102.5q0 -37 -10 -92q-10 -57 -27.5 -173t-27.5 -173q-2 -23 -16.5 -41.5t-43.5 -16.5q-8 0 -15 2.5t-11 3.5t-7 4t-5.5 5t-3.5 7t-2 9t-2 11.5t-1 11.5l-45 266q-23 145 -22 158z" />
<glyph unicode="(" horiz-adv-x="667" d="M143 492q0 252 106.5 499.5t285.5 446.5q45 37 86 -7.5t14 -87.5q-61 -70 -125 -184.5t-104 -222.5q-74 -201 -74 -444q0 -193 41 -344.5t137 -325.5q55 -102 127 -187q23 -53 -57 -92q-31 -14 -66 21q-168 193 -269.5 437.5t-101.5 490.5z" />
<glyph unicode=")" horiz-adv-x="647" d="M16.5 1381q1.5 30 24.5 49q25 18 51.5 16t44.5 -21q172 -195 271.5 -437.5t99.5 -491.5q0 -256 -104.5 -506t-284.5 -443q-41 -33 -88 2t-13 93q141 162 232 407q74 201 74 447q0 190 -41 341.5t-140 327.5q-61 113 -110 168q-18 18 -16.5 48z" />
<glyph unicode="*" horiz-adv-x="1093" d="M152 735q0 39 17 62.5t36.5 32t60.5 18.5q70 14 211 70q8 6 0 10q-49 25 -102 39q-23 8 -59.5 16t-51.5 12q-57 14 -84.5 37t-27.5 76q0 27 23.5 57.5t76.5 30.5q12 0 24.5 -4t20.5 -8t20.5 -14.5t17.5 -15.5t16 -18.5t16 -17.5q76 -86 145 -129q6 4 6 6q-4 90 -26 156 q-29 100 -29 125q0 39 24.5 69.5t69.5 30.5t69.5 -30.5t24.5 -69.5q0 -29 -8 -60.5t-20.5 -69.5t-16.5 -59q-18 -88 -8 -94q2 -2 10 -2q78 51 140 127q68 78 116 78q53 0 75 -30.5t22 -57.5q0 -41 -26 -67.5t-51.5 -36t-77.5 -21.5t-65 -16q-109 -31 -104 -47q2 -12 102 -46 q16 -4 66.5 -15t77 -19.5t52.5 -36t26 -68.5q0 -33 -25 -59.5t-64 -26.5q-27 0 -51 12.5t-35.5 22.5t-35 40t-29.5 36q-47 57 -115 96q-8 0 -8 -8q4 -102 29 -168q14 -43 16 -51q10 -20 10 -60q0 -43 -26.5 -73.5t-69.5 -30.5t-69.5 30.5t-26.5 73.5q0 35 28 111 q25 66 27 166q0 8 -2 10v2q-78 -47 -143 -129q-23 -29 -35 -41t-38 -25.5t-56 -13.5q-39 0 -64.5 28t-25.5 58z" />
<glyph unicode="+" horiz-adv-x="1429" d="M135 664v57q0 27 2 36t13.5 15t39.5 6h416q23 0 23 23v397q0 39 2 45q6 27 45 27h80q29 0 39 -14.5t10 -49.5v-409q4 -4 9 -9.5t9 -7.5t13 -2h405q35 0 45 -12t10 -43v-59q0 -27 -11 -40.5t-22 -15.5t-36 -2h-402q-8 0 -14 -8t-6 -18v-416q0 -39 -11.5 -48.5t-50.5 -9.5 h-65q-33 2 -41 14.5t-8 43.5v432q0 10 -21 10h-420q-33 0 -43 11.5t-10 46.5z" />
<glyph unicode="," horiz-adv-x="514" d="M133 53q0 49 36 82t87 33q63 0 100 -46t37 -120q0 -178 -178 -260q-51 -23 -65 -4l-15 14q-4 12 4 28.5t17 20.5q106 61 112 131q2 2 0 8.5t-4 6.5q-53 -12 -92 20.5t-39 85.5z" />
<glyph unicode="-" horiz-adv-x="890" d="M82 446v58q0 23 20.5 33t38.5 10h629q20 0 35.5 -13.5t13.5 -29.5l-4 -53q-8 -33 -41 -37q-309 -4 -651 0q-29 0 -41 32z" />
<glyph unicode="." horiz-adv-x="444" d="M129 80q0 49 34 77.5t87 28.5q51 0 84 -28.5t33 -75.5q0 -45 -33 -76t-84 -31t-86 30t-35 75z" />
<glyph unicode="/" horiz-adv-x="980" d="M71.5 -16.5q-16.5 20.5 2.5 55.5q115 219 338 652t338 652q23 43 68.5 47.5t86.5 -8.5q29 -4 36 -30.5t-11 -55.5l-672 -1290q-14 -27 -27.5 -37t-22.5 -11t-42 -1t-47 2q-31 4 -47.5 24.5z" />
<glyph unicode="0" d="M59 636.5q0 276.5 126 475.5t316.5 199t316.5 -199t126 -475.5t-126 -475t-316.5 -198.5t-316.5 198.5t-126 475zM276 637q0 -219 35 -371q23 -96 73 -143t117.5 -47t119 54t69.5 136q37 156 37 371q0 211 -37 371q-20 96 -70.5 143t-117.5 47q-145 0 -191 -190 q-35 -139 -35 -371z" />
<glyph unicode="1" d="M168 971q0 25 18 41q59 41 197 168q53 49 90 90q18 33 57 41h31q37 0 47 -11.5t15 -48.5l2 -1038v-23q0 -70 55 -71h76q18 0 28.5 -11.5t11.5 -19.5t5 -31v-12q-1 -57 -60 -53q-162 10 -440 2q-41 -6 -57 26q-4 29 -2 48q4 18 9 27t18.5 15.5t39.5 6.5q10 0 28.5 1 t33.5 1q49 2 49 86l2 803q-2 25 -6 24q-2 2 -6 -2q-78 -53 -170 -98q-31 -14 -58 14z" />
<glyph unicode="2" d="M66 27q-4 37 18 67q98 113 252 275l56 56t58.5 59.5t51.5 56.5t51 63.5t39.5 63.5t35 72.5t18.5 74.5t9 86q0 104 -48 165.5t-138 61.5q-86 0 -159.5 -61t-108.5 -166q-12 -39 -60 -39q-29 0 -37 16.5t-6 32.5q27 182 143.5 291t286.5 109q168 0 264.5 -107.5 t96.5 -273.5q0 -55 -23.5 -113.5t-44 -89.5t-63.5 -86q-55 -72 -122 -142.5t-163 -164.5t-133 -133q-12 -12 12 -17h6q31 2 135.5 1t135.5 -1q113 2 135 15q41 20 55 98q6 29 35 35h43q14 0 20.5 -10.5t6.5 -16.5t-2 -24q-13 -105 -33 -234q-12 -55 -66 -55h-682 q-37 0 -50 6t-25 29z" />
<glyph unicode="3" d="M74 139q0 39 29.5 70t68.5 31q10 0 21.5 -2t23.5 -7.5t19.5 -9.5t20.5 -13t18.5 -13.5t19.5 -15.5t16 -13q57 -47 89 -61.5t71 -14.5q94 0 159.5 90t65.5 228q0 109 -43 172t-112 63q-59 0 -97 -27q-16 -12 -40.5 -10t-38.5 21q-27 39 10 71q98 74 160 136q82 84 81 159 q0 61 -44 104.5t-109 43.5q-59 0 -120.5 -44t-104.5 -122q-20 -35 -68 -19q-49 23 -31 66q59 133 164 211t227.5 78t207.5 -72t85 -182q0 -141 -127 -240q-12 -10 4 -16q102 -33 165 -128t63 -216q0 -197 -157 -345.5t-365 -148.5q-125 0 -228.5 48t-103.5 128z" />
<glyph unicode="4" d="M66 399v39q264 416 569 834q2 4 8 12t8 10l7.5 7.5t9.5 6.5t12 2t18 1h37q39 0 39 -54v-28v-670q0 -37 23 -37h118h20.5t13.5 -4t13.5 -12t8.5 -23q2 -49 0 -106q-7 -23 -27 -27q-4 -2 -14 -2h-123q-27 -2 -27 -18q0 -289 -2 -326q0 -39 -49 -41q-12 2 -96 2 q-61 -4 -62 45v314q0 6 -4 11t-8 6t-10 3l-4 2q-231 -2 -424 0q-33 0 -44 10.5t-11 42.5zM276 541q-16 -27 3 -27h270q23 8 22 18q0 63 1 211t1 215q0 25 -14 7q-201 -272 -283 -424z" />
<glyph unicode="5" d="M102 119q0 41 30 70.5t71 29.5q23 0 43 -6t40.5 -21.5t33 -25.5t36 -32.5t29.5 -29.5q27 -23 64 -22q86 0 147 85t61 212q0 125 -63.5 198.5t-169.5 73.5q-76 0 -168 -55q-31 -16 -55 -2q-29 23 -27 63l41 562q2 35 39 51t74 14l282 -4h64q18 2 30.5 16.5t26.5 14.5h37 q39 0 31 -62l-17 -114q-2 -4 -6 -14.5t-5 -12.5t-5 -8t-7 -7t-10.5 -4.5t-15.5 -4.5t-20 -3l-359 6q-20 -4 -22 -18l-15 -221q1 -18 19 -12q51 16 123 16q178 0 299 -124t121 -304q0 -195 -135.5 -328t-340.5 -133q-123 0 -212 40t-89 116z" />
<glyph unicode="6" d="M86 508q0 279 172 490.5t479 306.5q49 12 66 -19l10 -14q10 -18 0 -38t-29 -28q-182 -80 -282.5 -182t-141.5 -252q-2 -12 0.5 -17t8.5 -3q63 39 180 39q158 0 262 -116t104 -280q0 -178 -114.5 -305t-286.5 -127q-197 0 -312.5 153.5t-115.5 391.5zM307 467 q0 -197 56.5 -298t154.5 -101q176 0 176 307q0 147 -47 223t-127 76q-70 0 -190 -92q-23 -16 -23 -115z" />
<glyph unicode="7" d="M57 1014l11 180q2 27 32.5 56.5t61.5 27.5q209 -10 641 0q29 0 52.5 -18.5t21.5 -49.5l-3 -32l-460 -1174q-18 -41 -70 -41q-12 0 -78 10q-29 4 -38 29t1 45l443 1024q2 2 0 4t-7.5 4t-11.5 2q-94 -4 -381 -4h-75q-8 0 -17 -4q-8 -6 -11 -33.5t-16.5 -49t-46.5 -21.5 q-23 0 -37 13t-12 32z" />
<glyph unicode="8" horiz-adv-x="999" d="M102 322q0 182 211 305q8 4 11 6q12 8 2 18q-193 119 -193 305q0 145 110.5 248t262 103t251 -90.5t99.5 -225.5q0 -178 -164 -278q-12 -6 4 -19q227 -131 228 -336q0 -164 -123 -279.5t-291 -115.5q-178 0 -293 102.5t-115 256.5zM301 324q0 -111 61.5 -182.5 t149.5 -71.5q90 0 151.5 66.5t61.5 166.5q0 84 -49 137q-61 61 -191 131q-25 12 -41 0q-143 -96 -143 -247zM313 1014q0 -86 61.5 -139.5t172.5 -104.5q23 -8 37 6q86 74 86 213q0 98 -44 154.5t-122 56.5q-82 0 -136.5 -53t-54.5 -133z" />
<glyph unicode="9" d="M80 879q0 176 122 301t294 125q199 0 315.5 -149.5t116.5 -387.5q0 -276 -168 -487t-469 -308q-57 -18 -86 27q-27 41 16 66q2 0 6 2q219 94 334 233q74 92 105 207q2 12 -1.5 18t-13.5 2q-72 -45 -188 -45q-162 0 -272.5 116t-110.5 280zM297 899q0 -141 54.5 -220 t137.5 -79q39 0 93.5 25.5t85.5 54.5q37 37 37 127q0 197 -56.5 295t-156.5 98q-88 0 -141.5 -76.5t-53.5 -224.5z" />
<glyph unicode=":" horiz-adv-x="526" d="M152 100.5q0 49.5 31.5 80t80.5 30.5t81 -30.5t32 -80.5q0 -51 -33 -82.5t-80 -31.5t-79.5 32.5t-32.5 82zM152 700q0 51 31.5 83t80.5 32t81 -31.5t32 -83.5q0 -47 -33 -78.5t-80 -31.5t-79.5 31.5t-32.5 78.5z" />
<glyph unicode=";" horiz-adv-x="471" d="M125 74q0 51 36 85t85 34q63 0 104 -50.5t41 -124.5q0 -94 -57.5 -174t-151.5 -118q-33 -14 -50 24.5t15 54.5q117 76 117 158q0 4 -14 2q-2 0 -10.5 -1t-12.5 -1q-43 0 -72.5 33t-29.5 78zM127 696q0 51 33 83t82 32t82.5 -31.5t33.5 -83.5q0 -49 -33.5 -81.5 t-82.5 -32.5t-82 32.5t-33 81.5z" />
<glyph unicode="&#x3c;" horiz-adv-x="1429" d="M133 670q-8 25 0 53q0 39 37 55q700 303 1049 436q49 18 65 -5t16 -74v-31q0 -20 -19 -38.5t-38 -27.5q-676 -279 -831 -340q-4 0 -5 -3t3 -5q424 -182 850 -346q41 -16 40 -65v-43q0 -37 -20.5 -57.5t-69.5 -4.5q-358 129 -1042 438q-35 16 -35 58z" />
<glyph unicode="=" horiz-adv-x="1429" d="M129 442v62q0 53 55 53h23q129 -2 1036 -2q14 0 25.5 -3t18.5 -11.5t10 -14.5t4.5 -19t1.5 -20.5t-1.5 -24t-1.5 -20.5q-2 -45 -14 -53t-43 -8h-1038q-76 0 -76 61zM137 893l4 76q10 41 64 41q33 0 459 1t573 5q27 0 42 -13.5t18 -29t3 -39.5q0 -4 1.5 -18.5t1.5 -22.5 q0 -37 -23 -49q-10 -4 -51 -4h-1030q-31 -4 -42.5 9t-19.5 44z" />
<glyph unicode="&#x3e;" horiz-adv-x="1429" d="M131 279q0 47 41 65q633 252 850 346q6 4 -4 10q-350 147 -830 338q-43 18 -49 33q-6 12 -6 37v35q0 45 20.5 66.5t59.5 4.5q518 -209 1038 -432q47 -20 47 -57q6 -33 2 -55q0 -25 -11 -38.5t-44 -27.5q-340 -152 -1022 -428q-51 -20 -70.5 1.5t-19.5 58.5q0 8 -1 22 t-1 21z" />
<glyph unicode="?" horiz-adv-x="741" d="M76 1241q0 68 59.5 99.5t151.5 31.5q170 0 279.5 -113.5t109.5 -289.5q0 -203 -156 -314q-68 -45 -145 -73q-43 -14 -56.5 -28.5t-13.5 -35.5q0 -45 80 -139q8 -12 0 -29.5t-20 -23.5q-18 -6 -45 1t-37 21q-111 129 -111 236q0 76 40 125t96.5 71.5t111.5 44t95 64.5 t40 110q0 70 -45 108t-131 38q-29 0 -79 -7.5t-75 -7.5q-66 0 -107.5 28t-41.5 83zM197 96q0 51 35.5 84t86.5 33q53 0 88 -33t35 -84t-35 -85t-88 -34q-51 0 -86.5 34t-35.5 85z" />
<glyph unicode="@" horiz-adv-x="1966" d="M223 567q0 360 247 610t599 250q287 0 471 -161.5t184 -431.5q0 -256 -153.5 -453t-362.5 -197q-162 0 -161 152q0 12 -1.5 13t-9.5 -7q-150 -158 -278 -158q-82 0 -135.5 69t-53.5 163q0 119 54.5 250t150.5 229q141 145 281 145q92 0 141 -61v-2q16 37 30.5 48t55.5 13 h24.5h35h22.5q43 0 43 -45q-8 -29 -55 -194.5t-70 -239.5l-37 -127q-8 -27 -12 -70q-2 -55 33 -55q37 0 90 32t96 81q68 82 110 190.5t42 216.5q0 215 -149.5 353.5t-379.5 138.5q-291 0 -496.5 -224.5t-205.5 -549.5q0 -279 187.5 -457t449.5 -178q457 0 651 430 q10 23 20.5 31t36.5 8q2 0 10.5 -1t12.5 -1q43 -12 26 -58q-84 -246 -290.5 -390t-470.5 -144q-334 0 -558.5 223t-224.5 559zM770 440q0 -41 20.5 -65.5t45.5 -24.5q90 0 200 146q113 147 113 346q0 43 -25.5 69.5t-60.5 26.5q-55 0 -117 -68q-74 -88 -125 -217t-51 -213z " />
<glyph unicode="A" horiz-adv-x="1456" d="M16 55.5q0 55.5 41 55.5q72 0 91.5 12t46.5 76q14 29 32 82l377 1007l-12 45q-4 14 10 27.5t39 15.5h68h26q59 0 80 -30q94 -248 186.5 -490t131 -344t59.5 -152q20 -53 57 -155q23 -66 43.5 -83.5t79.5 -17.5h14q39 0 39 -57q0 -23 -9 -40q-8 -15 -27 -15h-5 q-128 6 -280 6q-121 0 -258 -4q-27 -2 -36 15.5t-9 45.5q0 55 63 56q20 0 47 1t37 1q43 2 54.5 18t-3.5 55q-25 63 -68.5 181t-68.5 182q-6 12 -33 12h-307q-12 0 -30 -22q-41 -115 -125 -342q-10 -20 -11 -56q0 -33 87 -33q16 0 34 1q25 4 43 0q12 -2 22.5 -20.5 t10.5 -41.5q-2 -20 -14.5 -36.5t-22.5 -16.5q-167 3 -275.5 3t-158.5 -3h-27q-39 6 -39 61.5zM563 729q-1 -2 -1 -4q0 -4 6 -6q10 -2 24 -2q49 1 93.5 1t84.5 -1q8 0 16 7q6 6 5 10l-97 286q-2 8 -7 10q-2 1 -4.5 1t-4.5 -1q-4 -2 -6 -4q-20 -61 -62.5 -175t-46.5 -122z" />
<glyph unicode="B" horiz-adv-x="1343" d="M36 48q5 52 27 61q43 6 56 2q111 0 136.5 28.5t25.5 145.5v757q0 131 -29 160q-20 20 -119 21h-47q-24 0 -24 50q0 58 22 60q172 18 594 19q127 0 185.5 -11.5t135.5 -46.5q88 -39 140.5 -112.5t52.5 -161.5q0 -80 -46 -147.5t-122 -106.5q-16 -8 2 -16 q113 -53 178.5 -140.5t65.5 -193.5q0 -143 -95.5 -260t-234.5 -144q-106 -21 -226 -21q-24 0 -48 1q-158 3 -307 3t-289 -3q-35 4 -35 45q0 5 1 11zM528 371q0 -104 11 -156q8 -49 51 -72.5t141 -23.5q121 0 198 82t77 202q0 78 -38 144.5t-104 105.5q-35 20 -79 31 q-45 10 -69 12q-12 1 -33 1t-51 -1q-60 -2 -77 -2q-27 -8 -27 -39v-284zM528 825q0 -18 29 -18q15 0 61 -1h39.5h26.5q20 1 61 4t61.5 10t49.5 22.5t43 36t24.5 53.5t10.5 76q0 118 -80 186q-60 50 -148 58q-35 3 -67 3q-49 0 -92 -8q-18 -8 -19 -26v-396z" />
<glyph unicode="C" horiz-adv-x="1560" d="M98 649q0 315 215 514t553 199q25 0 46.5 -1t44 -4t37 -4t39 -7.5t34.5 -8.5t36.5 -11t36 -11t42 -13.5t43.5 -15.5q41 -14 57 0q12 10 45 7t37 -21q21 -87 21 -157q0 -14 -1 -28q0 -2 -1 -62t1 -60q-8 -33 -46 -41.5t-56 18.5q-104 301 -403 301q-233 0 -368.5 -147.5 t-135.5 -403.5q0 -264 149.5 -434t382.5 -170q178 0 314 123q41 37 61.5 62.5t54.5 88.5q10 18 39 24q28 7 50 -4q17 -9 17 -26q0 -5 -1 -10q-54 -176 -152 -336q-39 8 -57 8q-57 0 -150 -28q-90 -29 -239 -29q-326 0 -536 194.5t-210 493.5z" />
<glyph unicode="D" horiz-adv-x="1583" d="M20 76q10 28 35 37q12 2 44 3t48.5 4t35 16.5t26.5 37.5q8 23 8 113v755q0 129 -16 152q-20 29 -131 29h-19q-28 0 -28 45q0 54 22 61l18 4q401 16 596 17q199 0 331 -34t245 -112q254 -180 254 -497q0 -229 -143.5 -418t-370.5 -252q-154 -43 -404 -43l-483 -2 q-46 0 -62 28q-10 17 -10 33q0 12 4 23zM463 223q0 -68 22.5 -90t110.5 -22q293 0 460 136t167 429q0 143 -52.5 261.5t-144.5 188.5q-63 49 -130 73t-183 36q-64 6 -133 6q-42 0 -86 -2q-10 -2 -20.5 -11t-10.5 -18v-987z" />
<glyph unicode="E" horiz-adv-x="1267" d="M37 58q8 54 41 57q14 2 88 2q78 2 102.5 30.5t24.5 139.5v753q0 106 -23.5 142.5t-111.5 36.5h-8.5h-9.5h-8t-8 1t-7 2t-7.5 2t-7.5 3t-7 5t-6 7t-5 10q-5 9 -5 20q0 18 13 42q10 20 53 20q328 2 551.5 2t343.5 -2q53 0 60 -39q8 -66 11 -118t4 -96t3 -60 q-2 -18 -29.5 -25.5t-50.5 0.5q-29 4 -28 39q-18 115 -48 139.5t-145 26.5q-109 4 -179 4q-46 0 -75 -2q-8 0 -17 -8t-9 -18v-398q0 -20 26 -20h211q109 0 130.5 16t35.5 115q4 14 25.5 21t45 -3t29.5 -41q2 -45 2 -111.5t-1 -142t-1 -102.5q0 -31 -25.5 -42t-50 -4 t-28.5 25q-14 92 -36.5 110.5t-131.5 18.5l-199 2q-33 0 -32 -30v-314q0 -63 2 -84q2 -29 12 -38q16 -16 125 -17h145q109 0 142.5 7.5t54.5 33.5q45 49 69 152q6 29 37 37q8 1 15 1q45 0 55 -22q5 -10 5 -34.5t-5 -63.5q-2 -23 -11 -90.5t-16 -112.5q-6 -47 -100 -47 q-225 2 -428 2q-303 0 -555 -4l-10 2q-38 7 -38 46q0 8 1 16z" />
<glyph unicode="F" horiz-adv-x="1112" d="M76 1283q2 48 37 48h6q215 2 430 2l430 -2q20 0 36.5 -18.5t16.5 -38.5l-6 -227q-23 -15 -50 -15q-14 0 -30 4q-23 4 -22 35q-6 80 -39 101.5t-160 21.5h-211q-37 0 -41 -23l-2 -358q0 -12 5 -18.5t9 -8.5t15.5 -4t13.5 -2q26 -2 80.5 -2t136.5 2q106 0 129 12.5t29 73.5 q4 33 50 38q5 1 10 1q36 0 40 -33v-358q-4 -23 -48 -31q-7 -1 -14 -1q-31 0 -36 32q-8 90 -34 110q-24 18 -115 17h-19q-53 -2 -107 -2t-108 2q-12 -2 -23.5 -11t-11.5 -18v-395q0 -70 23.5 -90.5t103.5 -20.5h23q32 -4 32 -56q0 -23 -10 -39.5t-27 -16.5q-124 3 -250 3 t-253 -3h-3q-35 0 -35 48q0 55 29 60q80 4 102.5 24.5t22.5 90.5v893q0 68 -24.5 88.5t-100.5 24.5q-31 7 -31 53q1 3 1 7z" />
<glyph unicode="G" horiz-adv-x="1562" d="M102 643q0 152 64.5 290t175.5 243q109 100 226.5 145t279.5 45q133 0 338 -61q35 -10 57 -11q14 0 27 13q8 12 35.5 12t33.5 -14q10 -16 13 -151q2 -49 2 -91q0 -71 -4 -119q-2 -39 -47 -39h-5q-49 2 -55 33q-66 315 -364 315q-240 0 -375 -159.5t-135 -440.5 q0 -258 134 -416.5t353 -158.5q115 0 252 61q12 4 12 45v201q0 70 -25.5 90.5t-109.5 22.5l-78 2q-10 0 -20 10t-15.5 25.5t-5.5 32t10.5 28.5t30.5 14q68 -2 172.5 -2t225 1t159.5 1h3q39 0 39 -42q0 -7 -1 -15q-10 -41 -12 -43q-16 -12 -41 -8q-63 -8 -77.5 -26.5 t-16.5 -88.5q-2 -53 -2 -109t2 -116q0 -57 -29 -74q-109 -53 -260 -90t-278 -37q-301 0 -495 193.5t-194 488.5z" />
<glyph unicode="H" horiz-adv-x="1613" d="M42 79q9 32 42 34h12h14.5h12.5q63 4 83.5 22.5t20.5 81.5v893q0 66 -20.5 88.5t-81.5 26.5h-12q-23 2 -29 28.5t5 52t28 25.5q128 -6 248.5 -6t234.5 6q10 2 35 -12q12 -12 12 -39q0 -12 -2 -27q-6 -23 -45 -26q-78 0 -105.5 -26.5t-27.5 -90.5v-342q0 -31 25 -31h299 q150 -1 229 -1t86 1q39 10 39 35v338q0 51 -25.5 77.5t-55.5 32t-79 7.5h-16q-27 4 -34 32.5t1 47.5q16 30 53 30h2q22 1 52 1q77 0 210.5 -4t201.5 -4q27 0 44 1q27 0 43.5 -23.5t10 -51t-34.5 -33.5q-6 -2 -19 -2q-57 -6 -85 -28t-30 -83q-2 -135 -2 -307t1 -352.5 t1 -233.5q0 -57 29 -79.5t105 -22.5q70 0 71 -54q2 -45 -35 -63q-8 -4 -16 -4h-573q-41 0 -47 33q-8 25 3 55.5t42 30.5h49q76 0 104.5 21.5t28.5 82.5v371q-2 14 -37 14h-190.5h-230.5h-200q-2 0 -6 -3t-9 -10t-5 -16v-356q0 -68 22.5 -87t100.5 -19h18q27 2 41.5 -25 t4 -57.5t-43.5 -34.5h-514q-41 0 -51 26q-7 15 -7 32q0 13 4 27z" />
<glyph unicode="I" horiz-adv-x="743" d="M92 45q0 55 31 61q8 2 27 3q63 8 81.5 27.5t20.5 80.5l2 70v753l-2 70q-2 72 -17.5 89.5t-84.5 25.5q-16 0 -29 6q-21 13 -21 41q0 8 2 17q8 42 41 44h13q173 -2 285.5 -2t164.5 2q49 0 53 -41q4 -24 -6 -47q-12 -20 -51 -20q-80 -2 -97.5 -28t-17.5 -157v-823 q0 -72 27 -92q12 -8 104 -14q30 0 42 -27q7 -15 6 -31q0 -15 -4 -29q-10 -32 -35 -32q-123 4 -245.5 4t-244.5 -4q-20 0 -32.5 15.5t-12.5 37.5z" />
<glyph unicode="J" horiz-adv-x="663" d="M-195 -446q0 45 32 79.5t77 34.5q14 0 29.5 -6t23.5 -12t24.5 -19.5t20.5 -17.5q43 -33 47 -35q25 -12 59 -1t52 38q29 43 38 120t9 288v962q0 82 -2 123q-2 72 -25.5 92.5t-103.5 20.5q-6 -2 -18.5 1t-14.5 3q-33 2 -33 57q0 20 12 36q12 13 32 13h6q25 0 43 -2 q25 0 183 2q78 1 149 1t135 -1q45 -2 45 -45q0 -51 -27 -57q-13 -6 -31 -6q-12 -2 -35 -2q-80 -6 -79 -113v-954q0 -141 -35 -299t-101 -258q-121 -188 -297 -189q-90 0 -152.5 39t-62.5 107z" />
<glyph unicode="K" horiz-adv-x="1515" d="M32 61q5 37 40 50q16 4 47 0q66 0 98.5 23.5t32.5 82.5v893q0 70 -25.5 92.5t-107.5 22.5h-41q-31 2 -39 35.5t4 48.5q8 26 44 26h3q205 -5 353 -5q111 0 190 3q49 0 49 -53q0 -55 -57 -55q-84 0 -109 -22.5t-25 -92.5v-403q0 -8 7 -9q27 10 63 43q92 78 208 232.5 t116 224.5q0 14 -11.5 17.5t-72.5 9.5l-37 4q-25 20 -25 49q0 14 6 31q10 29 48 22q146 -4 271 -4t230 4q31 0 44.5 -26.5t0 -53t-44.5 -22.5q-98 -2 -155.5 -25.5t-102.5 -85.5q-12 -16 -59 -90q-117 -176 -238 -317l-4 -4q23 -14 94 -80q57 -55 114.5 -121t128.5 -155 t106 -128q61 -74 106 -93t137 -19q35 0 47 -23q9 -12 9 -31q-1 -10 -3 -22q-8 -35 -42 -41q-36 3 -148 3q-149 0 -434 -5q-33 8 -43 24q-12 25 -3 55.5t40 30.5q20 2 35.5 4.5t37 9.5t21.5 19t-12 33q-8 10 -46 59t-50.5 63.5t-46 56.5t-53 62.5t-50.5 52.5t-60.5 55.5 t-60.5 45.5q-29 20 -59 27q-8 0 -9 -45v-328q0 -61 27 -84.5t107 -23.5q45 0 57 -25q9 -20 9 -38t-9 -34q-8 -20 -47 -20q-125 5 -259 5t-276 -5h-12q-31 0 -43 16q-12 12 -12 37q0 7 1 16z" />
<glyph unicode="L" horiz-adv-x="1218" d="M34 80q7 33 34 35h12h14q127 0 142 65q4 45 4 115v815q0 70 -25 90.5t-109 22.5h-24q-27 2 -33 38.5t4 51.5q16 27 51 20q84 -2 193 -2q163 0 379 4q41 0 49 -32q5 -18 5 -33q0 -47 -50 -51q-41 -4 -66 -5q-92 -4 -114.5 -17t-22.5 -67v-909q0 -49 27.5 -67.5t85.5 -18.5 h170q115 0 155.5 18.5t108.5 106.5l74 96q22 8 38 8t27 -8q13 -6 17 -18q4 -10 3 -17q0 -8 -3 -14q-86 -205 -125 -268q-35 -47 -82 -47q-260 4 -555 5h-108q-194 0 -222 -3h-7q-33 0 -44 33q-6 12 -6 28q0 11 3 25z" />
<glyph unicode="M" horiz-adv-x="1929" d="M45 25q-5 13 -5 26q0 15 7 29q14 27 45 24q12 -1 23 -1q53 1 75 17q28 20 35 77q4 41 6 92q6 92 21.5 271t24 322.5t8.5 272.5q0 45 -28 54.5t-63.5 10.5t-46.5 23q-10 25 -4 51q7 39 43 39h7q71 -4 157 -4q57 0 121 2q53 0 68 -33l419 -938q6 -6 11.5 -0.5t13.5 21.5 l403 915q20 35 70 35q68 -2 137.5 -2t139.5 2q27 0 40 -25.5t4.5 -53t-34.5 -29.5q-6 -2 -37 -4t-45 -7q-31 -10 -31 -53q0 -25 4 -82l56 -784q8 -131 31.5 -159t101.5 -28q12 0 21 -2t15.5 -4t10.5 -7t6 -9t3 -12.5t1 -12.5v-15v-15q-6 -35 -51 -35q-74 5 -229 5 q-117 0 -279 -3q-51 0 -55 31q-4 14 0 45q2 14 19.5 24t35.5 10q41 0 67.5 8.5t41 14.5t20.5 31.5t7 36t-2 52.5t-3 56q-4 109 -41 674q-2 23 -16 -12q-2 -7 -4 -11l-414 -946q-8 -23 -50 -23q-1 1 -2 1q-44 0 -53 22l-430 951l-14 24l-43 -690q-4 -78 -4 -98 q0 -47 22.5 -66.5t98.5 -26.5q41 0 51 -32q3 -15 3 -28q0 -38 -32 -46q-4 -2 -11 -3t-11 -1q-116 5 -232 5l-174 -3q-4 0 -12 1t-12 2t-10.5 4t-10.5 8t-6 14z" />
<glyph unicode="N" horiz-adv-x="1708" d="M66 79q12 30 51 30q131 0 131 94v991q-45 27 -148 31q-12 0 -20 17.5t-8 37.5q0 49 53 53q37 3 96 3q31 0 65 -1q106 -2 128 -2q39 0 65 -30l797 -895h-2q27 -31 26 -2v636q0 133 -18 152q-12 12 -45 18q-16 2 -53 4.5t-56 4.5q-25 0 -36 28.5t-0.5 56t38.5 27.5 q62 -3 162 -3q133 0 332 5q29 0 35 -59q2 -51 -49 -51q-109 -4 -127.5 -22.5t-18.5 -127.5v-1046q0 -43 -58 -49q-13 -1 -23 -2q-38 0 -50 18q-178 201 -468 527.5t-429 484.5q-4 2 -10 8q-8 -6 -10 -15v-704q0 -98 10 -129q8 -23 25.5 -35t30 -14t44 -2h37.5q51 -4 60 -27 q15 -22 5 -60q-9 -36 -44 -36h-4q-140 3 -247 3q-143 0 -227 -5q-27 -2 -40 28q-7 15 -7 30q1 14 7 29z" />
<glyph unicode="O" horiz-adv-x="1693" d="M92 639q0 313 214 520t544 207q324 0 532.5 -190.5t208.5 -481.5q0 -311 -213 -522t-532 -211q-324 0 -539 194.5t-215 483.5zM360 692q0 -264 146.5 -438t374.5 -174q236 0 339 152.5t103 400.5q0 274 -146 445t-384 171q-195 0 -314 -152.5t-119 -404.5z" />
<glyph unicode="P" horiz-adv-x="1181" d="M41 1276q0 53 35 55q162 18 463 19q168 0 272 -27q137 -35 220 -134t83 -231q0 -197 -141 -310t-383 -113q-45 0 -88 6q-4 2 -6 -2t-2 -19v-303q0 -59 20 -83q19 -22 66 -21h8q10 0 35.5 2t40.5 2q51 -2 65 -25q10 -18 8 -47q-2 -23 -14 -40q-11 -15 -29 -15h-4 q-148 6 -303 6q-124 0 -252 -4q-39 0 -55 22q-10 18 -8 37q2 49 13 56.5t67 7.5q70 0 84 9t14 52v914q0 94 -13.5 117.5t-58.5 23.5q-8 0 -31.5 -3t-37 -3t-30 3t-26.5 15t-12 33zM494 680q0 -29 22 -35q31 -6 62 -6q139 0 208.5 85t69.5 239q0 183 -125 249q-67 34 -157 34 q-28 0 -58 -3q-23 -2 -22 -31v-532z" />
<glyph unicode="Q" horiz-adv-x="1683" d="M78 639q0 309 218 518t548 209q324 0 526.5 -191.5t202.5 -486.5q0 -231 -133 -416.5t-355 -269.5q-8 0 0 -4q100 -47 248 -170q92 -78 154.5 -106.5t154.5 -30.5q26 -8 26 -28q0 -15 -13 -36q-25 -45 -56 -51q-59 -12 -106 -12q-223 0 -494 225q-35 29 -78.5 68 t-60.5 51q-25 18 -96 47q-307 27 -496.5 217t-189.5 467zM346 686q0 -266 149.5 -443t376.5 -177q135 0 236.5 88t146.5 213t45 262q0 279 -138 448.5t-374 169.5q-201 0 -321.5 -153.5t-120.5 -407.5z" />
<glyph unicode="R" horiz-adv-x="1425" d="M30 74q10 28 42 32q6 2 22 3h19q80 0 103.5 22.5t23.5 85.5v70v755q0 82 -2 109q-2 37 -17 51q-16 23 -149 25q-36 0 -36 49q0 44 30 57q168 16 505 17q102 0 194.5 -18.5t178.5 -60.5t136 -123t50 -194q0 -109 -55 -203t-147 -147q-8 -4 4 -26q33 -49 69.5 -104.5 t81.5 -123t70 -104.5q49 -72 123 -127q39 -33 104 -45q28 -22 28 -48q0 -18 -13 -38q-18 -13 -45 -17q-14 -2 -43 -2q-205 0 -318 129q-68 76 -174 240q-18 29 -47 84t-41 76q-14 37 -29 34q-78 -6 -156 -6h-38q-8 2 -13.5 -9t-5.5 -15q0 -182 2 -285q4 -66 28 -85t99 -19 q25 6 52.5 1t38.5 -34q3 -17 3 -31q0 -55 -51 -55q-37 0 -165 2q-85 1 -158 1h-70q-102 -1 -168 -5l-33 2q-19 0 -31 26q-6 15 -7 30q1 12 5 24zM485 659q0 -6 4.5 -12t8.5 -8l4 -2q44 -2 78 -2q68 0 94 8q90 31 141 114t51 185q0 150 -68.5 226.5t-246.5 76.5 q-66 0 -66 -24v-562z" />
<glyph unicode="S" horiz-adv-x="1050" d="M104 339q0 15 18 23q20 10 45.5 8.5t35.5 -12.5q31 -92 61.5 -139t81.5 -82q76 -53 154 -53q104 0 164.5 57.5t60.5 145.5q0 33 -9 62.5t-30.5 57t-39 48t-52.5 47t-52.5 39t-58.5 39t-51 32.5q-72 47 -117 83t-98 89.5t-79.5 116t-26.5 133.5q0 145 106.5 238.5 t271.5 93.5q63 0 175 -35q49 -16 65 -16q8 0 10 6l13 8q20 8 51 4q14 2 21 -7t10 -26q31 -236 32 -258q-2 -33 -24.5 -40t-44 2.5t-25.5 17.5q-92 229 -264 229q-84 0 -128 -43t-44 -114q0 -117 239 -277q10 -8 17 -12q88 -59 130 -90t109.5 -93.5t97 -130t29.5 -145.5 q0 -168 -123.5 -276.5t-316.5 -108.5q-68 0 -213 43q-43 12 -53 12q-4 0 -16 -16q-20 -14 -52 -9t-37 34q-43 261 -43 314z" />
<glyph unicode="T" horiz-adv-x="1394" d="M92 1354q23 25 53 25q3 -1 5 -1q34 -2 43 -24q8 -20 92 -21q205 -2 413 -2t418 2q66 0 76 2q14 4 20 19q9 21 44 21q13 0 30 -3q25 -4 29 -37l31 -331v-5q0 -19 -14 -28q-16 -10 -34 -10q-51 0 -59 47q-25 119 -48.5 151.5t-68.5 32.5h-270q-27 0 -27 -51v-854v-70 q0 -55 23.5 -77.5t105.5 -22.5h58q35 0 47 -34t2 -58q-12 -31 -53 -31q-100 4 -233 4q-166 0 -382 -6q-35 0 -45 28q-5 16 -5 32t5 32q10 16 17.5 19t25.5 8h23.5h29h27.5q35 0 53.5 4t36 29.5t17.5 72.5v70v310v385v165q0 45 -35 45h-217h-41q-47 0 -73 -38t-52 -175 q-19 -12 -42 -12q-11 0 -24 3q-35 9 -35 33q0 89 33 351z" />
<glyph unicode="U" horiz-adv-x="1669" d="M41 1258q-4 12 -4 22q0 19 12 33q14 18 45 18h514q39 0 50.5 -26.5t-1 -54t-30.5 -27.5h-19q-84 0 -107.5 -20.5t-25.5 -92.5q0 -16 -1 -45t-1 -43v-387q0 -115 18.5 -201t61.5 -156.5t123 -107.5t194 -37q281 0 367 223q31 80 31 267v360q0 160 -28 199t-136 43 q-31 8 -37 24q-7 14 -7 29.5t7 32.5q10 20 37 20q110 2 233 2t258 -2q39 0 39 -51q0 -45 -37 -53q-109 -4 -138 -43t-29 -193v-366q0 -129 -6.5 -196t-47.5 -156t-123 -160q-92 -82 -187 -117t-243 -35q-408 0 -551 309q-31 70 -39 128.5t-8 207.5v518q0 29 -4 47.5t-8 28.5 t-19.5 15.5t-23.5 6.5t-39 1h-47q-33 3 -43 35z" />
<glyph unicode="V" horiz-adv-x="1558" d="M41 1247q-5 13 -5 25q0 15 7 28q8 31 53 31q137 -4 270.5 -4t262.5 4q51 0 61 -14q14 -19 14 -39q0 -13 -6 -27q-6 -16 -39 -32q-109 -8 -129 -13q-35 -7 -35 -44q0 -17 7 -40q12 -29 18 -45l301 -737q4 -8 11.5 -13t11.5 3l280 729q27 66 29 98v7q0 45 -47 57 q-20 4 -92 4q-31 0 -45 24q-9 17 -9 32q0 17 11 34q12 17 38 17q5 0 11 -1q58 -4 173 -4t288 4h4q42 0 41 -44q0 -54 -37 -58q-78 0 -115 -36t-86 -159l-405 -1032q-6 -14 -22.5 -31.5t-33.5 -19.5q-13 -2 -29 -2q-24 0 -55 4q-31 6 -45 45l-434 1067q-29 72 -57.5 105.5 t-52 40t-72.5 8.5q-31 6 -41 28z" />
<glyph unicode="W" horiz-adv-x="2224" d="M26 1284q6 47 50 47q315 0 499 2q41 0 50 -26q6 -31 -4 -60q-8 -20 -41 -20q-51 0 -64.5 -8.5t-13.5 -26.5q0 -29 37 -119l309 -760h-2q16 -23 26 6l162 392q12 31 4 57l-143 332q-37 88 -64.5 106.5t-134.5 22.5q-27 4 -27 59q0 45 29 45h2q184 -4 393 -4t441 4 q18 2 43 -10q18 -12 17 -48t-19 -46q-8 -4 -29 -4q-92 -2 -121.5 -22.5t-64.5 -104.5l-100 -242q-8 -18 0 -39l219 -518q10 -29 20 0l307 793q28 72 28 101q0 9 -3 15q-12 20 -100 23q-27 4 -33 30.5t8 50t37 21.5q51 -4 137 -4q108 0 270 6q18 0 30.5 -15t14.5 -36 q0 -55 -45 -55q-82 0 -115.5 -26.5t-74.5 -137.5l-410 -1055q-16 -39 -39 -43q-36 -5 -64 -5q-57 0 -75 22q-2 4 -6 14t-6 12l-213 500q-14 33 -29 -4l-205 -494q-16 -41 -51 -49q-20 -5 -43 -5q-30 0 -65 9q-29 10 -43 49l-406 1018q-53 135 -82 158q-10 10 -30.5 15t-34 6 t-40 2.5t-30.5 1.5q-27 0 -41 8q-22 10 -22 44q0 7 1 15zM1098 1222q-2 -1 -2 -7q0 -7 2 -19q2 -8 15 -42t27.5 -68.5t16.5 -41.5q6 -14 11.5 -14t11.5 14q20 45 57 154q1 5 1 9q0 18 -28 20h-84q-24 -2 -28 -5z" />
<glyph unicode="X" horiz-adv-x="1607" d="M45 51q0 16 11.5 33.5t29.5 19.5q82 6 126 26t85 73q27 33 362 452q6 12 7.5 15.5t-5 11.5t-6.5 10l-280 355q-88 117 -129 139q-39 25 -150 26q-12 0 -29.5 11.5t-21.5 25.5q-4 20 -4 34.5t4 23.5q10 27 45 27q6 0 12 -1q132 -6 263 -6q153 0 303 8q41 0 53 -28 q6 -6 4 -33t-14 -39q-25 -8 -41 -8l-86 -4q-25 -2 -11 -33q10 -27 45 -70l197 -258q2 -2 8 1t11 7l4 4q178 233 219 293q20 31 14 43.5t-43 12.5q-68 0 -80 10q-16 14 -17 44t15 42q12 12 37 12q432 0 473 2q31 -4 41 -30.5t-2 -51t-39 -24.5q-113 -6 -183.5 -61.5 t-164.5 -176.5l-184 -241q-10 -12 0 -25q35 -39 82 -97.5t92 -116.5t84 -110.5t65.5 -87.5t26.5 -37q10 -12 30.5 -40.5t26.5 -36t22.5 -25.5t26 -23.5t27.5 -16.5t36.5 -15t44 -9.5t58.5 -9.5q37 -4 37 -53q0 -16 -10 -33.5t-33 -15.5q-82 2 -278.5 2t-266.5 -4 q-4 -1 -9 -1q-24 0 -36 21q-12 23 -4 54.5t29 31.5h26q70 0 70 19q-2 27 -55 98l-230 307q-14 20 -20 20.5t-18 -16.5q-4 -6 -7 -8l-260 -321q-41 -51 -41 -70q0 -10 11 -16q20 -12 88 -13h18q27 0 39 -26.5t2 -53t-37 -26.5q-217 4 -345 4q-85 0 -130 -2q-18 -2 -29.5 17.5 t-11.5 37.5z" />
<glyph unicode="Y" horiz-adv-x="1490" d="M23 1253q-2 8 -2 17.5t2 19.5q9 42 37 42q4 0 8 -1q194 -3 329 -3t211 3q23 0 37 -26.5t4 -54t-47 -27.5q-59 0 -74 -2q-31 -6 -18 -41q10 -25 47 -82l254 -383q6 -10 7 -12.5t6 -5.5t10.5 2.5t11.5 15.5l217 358q55 92 55 121q0 18 -15.5 24.5t-72.5 6.5h-24 q-14 6 -23.5 32.5t0.5 50.5q9 23 40 23h5q86 -3 195 -3t241 3q41 0 41 -51q0 -53 -39 -53q-31 -2 -56.5 -8.5t-48 -21.5t-35.5 -24.5t-33.5 -37t-26.5 -36.5t-27.5 -46t-26.5 -43l-297 -494v-299q0 -57 30 -77.5t91 -24.5q53 0 64 -6q20 -10 20 -62q0 -55 -45 -55 q-236 4 -388 4q-101 0 -165 -2q-39 0 -53 26q-10 29 -2 60q8 20 22.5 29.5t25.5 9.5t34.5 -1t34.5 -1q45 2 63.5 26.5t22.5 75.5q5 81 5 158q0 58 -3 115l-367 563q-70 109 -109.5 137.5t-123.5 32.5q-41 0 -49 28z" />
<glyph unicode="Z" horiz-adv-x="1443" d="M63 53q4 25 15 39l835 1084q2 2 3.5 7t1.5 9v2h-414q-145 0 -180 -28.5t-52 -166.5l-2 -10q-2 -10 -27.5 -14t-51 4t-25.5 29q0 201 10 286q8 27 64 37h958q51 0 62 -20q12 -18 12 -36.5t-12 -37.5l-848 -1090q-4 -4 2 -6t18 -3t19.5 -1h13.5h471q154 0 201 53.5 t63 210.5q2 12 3 16.5t7.5 9.5t20.5 5h49q35 0 35 -26q-6 -174 -29 -369q-4 -18 -33.5 -29.5t-48.5 -11.5q-61 0 -287.5 -1t-351.5 -1q-98 0 -201.5 1t-169 1h-69.5q-25 0 -45 14q-17 11 -18 34q0 4 1 9z" />
<glyph unicode="[" horiz-adv-x="690" d="M203 -408v1758q0 35 13 47t48 16q10 4 129 1t129 -3q45 0 45 -27v-41q0 -29 -35 -32q-113 -10 -120 -15q-14 -10 -15 -43v-1566q0 -31 12.5 -37t71.5 -10l54 -5q33 -2 32 -43v-32q0 -8 -3 -13.5t-10 -7.5t-12 -2t-15.5 -1t-14.5 -1q-127 -8 -250 -4q-59 4 -59 61z" />
<glyph unicode="\" horiz-adv-x="980" d="M74 1321q-14 29 4 44t51 15h64q25 0 34 -1t19 -10t20 -30l635 -1292q33 -70 -33 -76l-84 -10q-27 -2 -40 8.5t-25 34.5z" />
<glyph unicode="]" horiz-adv-x="702" d="M55 -397q0 20 29 28q10 2 35.5 4.5t30.5 2.5q29 2 41 4t23 13t11 34q6 1174 0 1568q-2 20 -5 29.5t-10 13t-28 5.5l-92 6q-35 4 -35 30v37q0 35 33 35h23q20 0 75.5 1t100.5 1t71 -2q35 -2 48.5 -19.5t13.5 -54.5v-1747q0 -57 -64 -61q-174 -6 -260 0q-41 4 -41 39v33z " />
<glyph unicode="^" horiz-adv-x="1005" d="M49 766q238 408 416 674q6 16 22 16h39q16 0 27 -16q266 -428 414 -682q16 -37 3 -52.5t-40 -17.5q-41 -8 -66.5 -3t-48.5 42q-123 215 -291 477q-18 27 -37 0q-90 -139 -294 -485q-23 -35 -72 -35q-55 6 -60 8q-43 16 -12 74z" />
<glyph unicode="_" horiz-adv-x="1071" d="M-8 -385q0 2 2 8t6 7t11 3t20 2q256 -2 1016 -2q37 0 36 -32v-43v-4q0 -27 -18 -29h-41h-985q-12 0 -20.5 1t-13.5 3t-8 3t-4 6t-1 7v10.5v12.5v37v10z" />
<glyph unicode="`" horiz-adv-x="712" d="M138.5 1325.5q19.5 20.5 41.5 20.5l148 2q39 0 55 -25q51 -129 96 -305q2 -35 -32 -41t-52 12q-92 117 -256 289q-20 27 -0.5 47.5z" />
<glyph unicode="a" horiz-adv-x="862" d="M47 172q0 160 227 219q63 16 183 70q10 10 10 18l-2 125q-2 156 -111 156q-27 0 -59.5 -23.5t-32.5 -44.5q0 -31 8 -51q-16 -18 -67 -43t-70 -31t-33 -6q-41 0 -41 55q0 78 134 183q111 84 200 84q68 0 135.5 -34t104.5 -87q27 -37 33 -67.5t6 -125.5v-356q0 -35 3 -51.5 t7 -20.5t12 -4q33 0 70 31q14 10 33 10q29 -4 35 -32q2 -10 2 -19q0 -16 -7 -29q-139 -123 -229 -123q-94 1 -119 99v-2q-72 -55 -114.5 -76t-102.5 -21q-92 0 -153.5 55.5t-61.5 141.5zM244 197q0 -37 24.5 -61.5t63.5 -24.5q25 0 73 30.5t60 55.5v135q0 6 -4 12q-3 4 -6 4 h-2q-29 -14 -115 -51q-94 -35 -94 -100z" />
<glyph unicode="b" horiz-adv-x="1011" d="M12 1354q0 39 27 47l244 82q15 4 26 4q39 0 39 -53v-639q0 -21 2 -25q2 2 22.5 16.5t27 18.5t26.5 17.5t30.5 18.5t29 15t30.5 15.5t28.5 11.5t31 8t28.5 2q145 0 245.5 -124t100.5 -294q0 -215 -135 -360.5t-344 -145.5q-106 0 -283 39q-31 10 -34 55q3 248 3 532.5 t-3 604.5q0 20 -1 44t-1 28q0 14 -27 18q-14 2 -86 17q-27 8 -27 47zM348 453q0 -182 14 -236q12 -55 55.5 -87t104.5 -32q100 0 164 85t64 229q0 145 -64 232t-158 87q-57 0 -172 -82q-6 -4 -6 -47q-2 -39 -2 -149z" />
<glyph unicode="c" horiz-adv-x="888" d="M51 397q0 203 147.5 345.5t354.5 142.5q102 0 180 -38t78 -108q0 -39 -26.5 -66.5t-65.5 -27.5q-61 0 -139 76q-49 47 -99 47q-88 0 -156.5 -95t-68.5 -231q0 -143 70.5 -229t179.5 -86q135 0 215 115q13 36 44 36q8 0 17 -2q25 -12 33 -38q2 -9 2 -17q0 -18 -12 -31 q-139 -215 -369 -215q-168 0 -276.5 121t-108.5 301z" />
<glyph unicode="d" horiz-adv-x="1067" d="M39 401q0 207 136 349.5t337 142.5q68 0 158 -27q4 -2 6 0t3 7.5t1 10.5t-1 11t-1 8q2 63 2 205.5t-2 177.5q0 14 -4 17q-12 6 -109 14q-31 4 -35 45v8q0 40 37 47q162 53 250 84q16 7 28 7q11 0 19 -8q14 -15 15 -40v-1206q0 -68 4 -80t28 -12q14 0 60 18q25 8 39 3 t22 -33q4 -11 4 -23q0 -8 -2 -18q-4 -23 -18 -29q-115 -55 -266 -100q-11 -3 -20 -3q-24 -1 -36 21q-16 27 -16 58v7q0 8 -4 13.5t-10 1.5q-164 -109 -269 -109q-150 0 -253 127t-103 305zM246 463q0 -147 65.5 -239.5t157.5 -92.5q82 0 199 78q8 8 8 29v395 q-96 135 -209 135q-98 0 -159.5 -82t-61.5 -223z" />
<glyph unicode="e" horiz-adv-x="874" d="M43 414q0 199 123 332t309 133q219 0 305 -185q33 -66 56 -94q7 -14 7 -28q0 -12 -5 -24q-10 -26 -45 -28q-75 -3 -206 -3t-317 3q-29 0 -28 -57q0 -143 77.5 -235.5t194.5 -92.5q129 0 231 119q20 23 52 16q20 -4 32.5 -28.5t-0.5 -44.5q-203 -227 -395 -228 q-168 0 -279.5 130t-111.5 315zM266 631q4 -6 27 -6h276q11 0 19 4q6 3 6 8q0 139 -164 139q-106 0 -164 -145z" />
<glyph unicode="f" horiz-adv-x="663" d="M41 731q-6 20 -6 35q0 29 20 43q129 37 135 53q2 6 3 21q0 8 1 29.5t1 39.5q6 123 36.5 203t110.5 168q154 166 330 166q59 0 130.5 -25.5t104.5 -72.5q8 -14 8 -35q0 -28 -43 -94q-20 -33 -50 -33q-27 0 -62 28q-88 74 -178 74q-53 0 -96.5 -31.5t-63.5 -85.5 q-27 -75 -27 -176v-14l2 -129q0 -27 13 -27h139q41 0 47 -20l4 -8l14 -101q-4 -23 -13 -30t-34 -7l-166 3q-4 0 -4 -25v-404q0 -123 17 -145q10 -14 45 -19q24 -4 46 -4h21q31 3 54 1q41 -2 45 -62q0 -18 -11.5 -35.5t-27.5 -17.5q-152 5 -278 5t-224 -5h-4q-15 0 -24 16 q-11 17 -11 37q0 14 6 31q13 26 52 26h3q57 0 70.5 28t13.5 151v393v14q0 12 -12 19h-94q-37 0 -43 22z" />
<glyph unicode="g" horiz-adv-x="995" d="M47 -272q0 84 41 132t123 99q6 4 8 9t-2 7q-133 55 -133 160q0 8 2 16.5t6 15.5t8 12t12.5 12.5t13.5 11.5t15.5 9t14.5 8t14 8t12 8q39 20 58 32l-4 13q-137 88 -138 247q0 150 104.5 250.5t254.5 100.5q137 0 221 -84h6q43 0 178 22q33 4 47.5 -3t16.5 -38 q6 -106 6 -108q-10 -43 -41 -43q-10 0 -52 5t-55 5q-8 2 -8 -14q10 -33 10 -76q0 -143 -102 -233.5t-256 -90.5q-43 0 -76 8q-6 -8 -14 -15t-18.5 -15.5t-16.5 -12.5q-26 -22 -26 -35q0 -12 20 -18q51 -14 203 -14q55 0 83.5 -1t83 -6.5t86 -14.5t72.5 -27.5t62.5 -44 t38 -66.5t16.5 -92q0 -162 -164 -270.5t-387 -108.5q-119 0 -231.5 65.5t-112.5 174.5zM240 -219q-2 -61 74.5 -105.5t187.5 -44.5q94 0 184 60t90 123q0 57 -41 84.5t-160 35.5q-45 4 -114.5 4.5t-104.5 2.5q-8 -10 -27.5 -27.5t-25.5 -26.5q-63 -63 -63 -106zM291 569 q0 -113 46 -175t111.5 -62t106.5 51t41 149q0 106 -48 172t-116 66q-59 0 -100 -55.5t-41 -145.5z" />
<glyph unicode="h" horiz-adv-x="1077" d="M28 1358q0 37 27 47q115 47 260 88q13 4 24 4q42 0 42 -59v-602q0 -2 1 -7.5t2 -12.5t4 -11t5 -2q139 88 269 88q186 0 233 -156q29 -84 29 -227q0 -59 -6.5 -179t-6.5 -182q0 -27 15.5 -31.5t87.5 -4.5q31 0 39 -13.5t12 -46.5v-7q1 -16 -7 -30q-10 -18 -26 -18 q-75 -1 -161 -1h-89q-137 1 -176 1q-45 0 -55 53q0 57 41 57h10q63 0 78.5 12.5t21.5 59.5q14 121 15 271q0 127 -10.5 176t-36.5 77q-41 45 -107 46q-20 0 -37.5 -3.5t-37 -12.5t-28.5 -13t-34 -19.5t-31 -19.5q-14 -8 -14 -68v-413q2 -68 15.5 -81.5t68.5 -13.5 q47 0 51 -36v-11.5v-13.5v-10q0 -40 -35 -40q-5 0 -10 1q-26 1 -75.5 1t-124 -1t-126 -1t-79.5 1h-2q-19 0 -33 31q-8 16 -8 32q0 17 10 33q4 8 33 14q4 0 13 1t13 1q55 4 68.5 30t13.5 147v911l-2 74q0 27 -31 32q-12 2 -38.5 5.5t-41.5 5.5q-33 2 -33 47z" />
<glyph unicode="i" horiz-adv-x="559" d="M37 45v10q0 45 35 47q98 8 110 31q8 12 11 45v90v357q0 66 -7 77l-30 11q-39 8 -80 22q-25 10 -25 43t19 45q147 55 243 86q18 6 32 6q46 0 46 -69v-578q0 -74 2 -100q2 -43 11.5 -51t60.5 -8q4 0 8 1q43 0 49 -42v-37q0 -37 -42 -37h-9q-47 3 -145 3t-248 -3 q-31 0 -41 51zM145 1237q0 51 35 85t86 34q53 0 87 -34t34 -87q0 -49 -36 -81t-87 -32q-53 0 -86 33t-33 82z" />
<glyph unicode="j" horiz-adv-x="512" d="M-223 -362q0 47 25.5 86.5t66.5 39.5t98 -67q45 -55 99 -55q51 0 77.5 47t26.5 170v125v643q0 63 -7 74.5t-52 21.5q-12 4 -34 8t-26 6q-27 10 -24.5 46t20.5 44q94 41 250 93q37 14 53.5 -9.5t16.5 -50.5v-801q0 -137 -7 -198.5t-34 -124.5q-27 -68 -86 -133 q-94 -102 -248 -103q-90 0 -152.5 37t-62.5 101zM117 1217q0 49 35.5 82.5t87.5 33.5q53 0 86.5 -33.5t33.5 -82.5q0 -51 -34.5 -85t-85.5 -34q-53 0 -88 33.5t-35 85.5z" />
<glyph unicode="k" horiz-adv-x="1060" d="M18 1362q2 20 27 31q76 27 238 86q17 6 30 6q42 0 41 -62v-805q4 -31 8 -30l211 153q25 16 31 23q10 10 -10 14h-6h-35q-47 6 -47 49v7q4 47 49 47q53 -1 112 -1q118 0 259 3q23 0 33 -17.5t10 -36.5q0 -16 -10.5 -35.5t-22.5 -19.5q-119 -2 -236 -88q-80 -61 -200 -143 q-4 -10 0 -15q301 -307 362 -366q35 -37 57.5 -49.5t65.5 -12.5h25q22 -10 28 -36q2 -9 2 -18q0 -16 -7 -30q-11 -22 -29 -22q-89 5 -197.5 5t-235.5 -5q-23 0 -30 16q-8 14 -9 51q0 23 11.5 31t40.5 8q27 0 35 5.5t1.5 15.5t-28.5 33l-223 237q-10 10 -13.5 7t0.5 -17h-2 q0 -115 2 -182q0 -59 4 -72q10 -25 48 -25h53q31 0 31 -55q0 -53 -33 -53q-148 3 -247.5 3t-152.5 -3q-23 0 -30 16q-10 20 -10 40q0 16 6 32q12 23 49 22q59 0 70.5 25t11.5 154v878q0 49 -2 74q0 31 -9.5 39t-44.5 16q-2 0 -22.5 5t-26.5 5q-34 8 -34 46q0 8 1 16z" />
<glyph unicode="l" horiz-adv-x="550" d="M35 27q-3 10 -3 21q0 12 3 24q6 24 24 30q6 2 15 2h14h12q55 0 70 16q16 18 16 93v1038q0 23 -14 25l-98 18q-29 6 -31 42t27 46q150 57 264 93q6 1 10 1q19 0 30 -12q13 -16 13 -53v-1196q0 -80 10.5 -95.5t67.5 -15.5q51 0 57 -28v-29q0 -51 -39 -51q-148 2 -249 2 t-156 -2q-10 0 -25.5 8t-17.5 23z" />
<glyph unicode="m" horiz-adv-x="1669" d="M25 51q2 25 10 37q6 6 24 10q20 4 33 4q55 2 69.5 29t14.5 148v278v56.5v40t-1 23.5t-1 13v4q-8 12 -65 21l-48 6q-31 4 -31 36q0 15 7 36q4 14 18 20q78 37 269 86q9 2 16 2q41 0 41 -57v-80q0 -14 12 -6q180 121 309 121q156 0 209 -142q0 -2 9 2q66 47 101.5 69.5 t99 46.5t120.5 24q150 0 209 -129q31 -74 31 -281q0 -53 -4 -155.5t-4 -153.5q0 -37 16 -45.5t94 -8.5q39 0 51 -8q16 -10 16 -45q0 -9 -1 -20q0 -39 -39 -39q-56 2 -168 2t-279 -2q-27 0 -37 16q-6 8 -8 33t6 39q2 4 6.5 8t6.5 5t7 2t7 1h9h11q57 0 74 14.5t21 67.5 q6 80 6 273q0 180 -25.5 233t-93.5 53q-63 0 -223 -104v-440q0 -63 15.5 -80t72.5 -17q43 0 47 -49q0 -55 -39 -55q-171 3 -300 3q-65 0 -120 -1q-25 0 -36 25.5t0.5 52t41.5 26.5h15q68 0 84 26t16 153v317q0 70 -30.5 106.5t-82.5 36.5q-78 0 -233 -104v-440 q0 -66 15.5 -81.5t80.5 -15.5q2 0 33 -4q14 -2 14 -65q-6 -35 -32 -35q-98 4 -203 4t-219 -4q-31 0 -39 18q-6 11 -6 29v10z" />
<glyph unicode="n" horiz-adv-x="1062" d="M33 45q0 25 2 33q14 20 35 20h10q59 0 76.5 29t17.5 154v268q0 131 -6 149q-6 8 -64 19l-41 8q-31 8 -26.5 47t24.5 47q84 27 177 64q47 16 63 20q16 3 28 3q17 0 27 -7q16 -12 17 -49v-86q0 -14 2 -16.5t12 4.5q188 127 293 127q244 0 244 -373q0 -59 -8.5 -177 t-8.5 -177q0 -33 12.5 -41.5t61.5 -8.5q33 10 55 -14q8 -10 8 -35v-10q-2 -33 -22 -43q-8 -4 -31 -4q-49 0 -187 1h-83q-73 0 -109 -1q-31 -2 -40 7t-11 36q0 63 35 63h12q59 4 78 21.5t25 69.5q12 113 12 342q0 196 -124 196h-1q-80 0 -225 -104v-432q0 -66 15 -79.5 t85 -13.5q31 0 37 -36q0 -41 -6 -54q-6 -14 -41 -18q-30 1 -78.5 1t-116.5 -1q-46 -1 -83 -1q-74 0 -113 3q-29 2 -35 16q-4 8 -4 33z" />
<glyph unicode="o" horiz-adv-x="1028" d="M41 426q0 195 136 325t337 130q203 0 341 -131.5t138 -325.5q0 -190 -137 -322.5t-336 -132.5q-203 0 -341 132t-138 325zM262 485q0 -172 84 -286.5t199 -114.5q92 0 156.5 88t64.5 221q0 162 -83 268.5t-198 106.5q-94 0 -158.5 -80t-64.5 -203z" />
<glyph unicode="p" horiz-adv-x="1036" d="M20 -475q10 16 41 16q70 0 88.5 31t18.5 170v825v47q0 27 -5 34t-30 14q-12 4 -35.5 12t-34.5 10q-27 6 -30.5 38t12.5 46q2 4 8 10l228 137q18 14 44 14q6 0 13 -1q33 -4 33 -47v-107q0 -26 12 -18q163 114 264 114h2q137 0 237.5 -127t100.5 -290q0 -197 -140 -345.5 t-327 -148.5q-55 0 -133 23q-6 2 -11 -3.5t-5 -17.5v-219q0 -100 8 -138t26.5 -47.5t69.5 -9.5h29q45 0 55 -30q4 -12 4 -34t-6 -34q-12 -20 -47 -20q-47 2 -449 2q-29 0 -41 18q-12 17 -12 36t12 40zM371 184q102 -96 204 -96q86 0 145.5 84t59.5 213q0 145 -66.5 234.5 t-164.5 89.5q-70 0 -172 -80q-6 -6 -6 -21v-424z" />
<glyph unicode="q" horiz-adv-x="1038" d="M59 391q0 203 132.5 342t326.5 139q94 0 221 -65q6 -4 13 -8q6 -4 14 6q2 4 4 6q39 47 47 55q7 8 31 8h10q33 -2 47 -24q-16 -57 -16 -152v-88v-864q0 -135 16.5 -168t67.5 -33h20q29 0 36 -37q2 -11 2 -21q0 -23 -11 -42q-6 -12 -43 -12q-113 4 -224 4t-221 -4 q-59 0 -59 51q0 20 1 26.5t7 17.5t23 17q14 2 84 2q68 0 84 29t16 170v289q-4 29 -6 29.5t-8 -3.5q-135 -104 -256 -104q-156 0 -257.5 125t-101.5 309zM256 446q0 -150 72.5 -246t177.5 -96q78 0 178 84q6 12 6 52q0 283 -4 338q-2 31 -14 63q-18 55 -66.5 89t-109.5 34 q-109 0 -174.5 -83t-65.5 -235z" />
<glyph unicode="r" horiz-adv-x="743" d="M45 47q0 20 2 29.5t12.5 16.5t32.5 7q57 0 74.5 28t17.5 151v352q0 29 -6 33q-12 6 -47 18t-49 18q-25 12 -29 21q-2 4 -2 10v29q0 31 29 41q33 16 62.5 27.5t80.5 27.5t92 33q14 5 25 5q14 0 24 -8q18 -14 17 -38q2 -29 2 -117q2 2 16.5 39t26.5 58.5t27 29.5 q29 14 58.5 15t50 -5t53 -17t53.5 -15l18 -7q34 -11 34 -35q0 -7 -3 -14q-19 -55 -66 -141q-45 4 -94 29q-41 20 -61 20q-49 0 -109 -108v-287q0 -18 1 -45t1 -53q4 -68 16.5 -80.5t77.5 -12.5h43q35 0 40 -43t-15 -59q-8 -6 -27 -6q-47 0 -135 2t-160.5 2t-138.5 -4h-6 q-24 0 -31 14q-8 16 -8 39z" />
<glyph unicode="s" horiz-adv-x="669" d="M68 633q0 115 84 186.5t206 71.5q82 0 187 -43q7 -74 7 -136q0 -42 -3 -79q-2 -10 -17.5 -20.5t-31.5 -10.5q-43 0 -45 27q-29 147 -127 147q-39 0 -63.5 -23.5t-24.5 -58.5q0 -29 26.5 -60.5t52 -50t73.5 -48t54 -33.5q168 -117 168 -254q0 -111 -84.5 -189.5 t-199.5 -78.5q-72 0 -125 22l-12 4q-2 -2 -11 -20q-30 -12 -45 -12q-3 0 -6 1q-37 8 -39 39q-12 156 -16 224q-2 20 18.5 30.5t48.5 5.5q23 -8 29 -34q37 -158 152 -158q43 0 72.5 30.5t29.5 73.5q0 70 -109 148q-10 8 -54 36.5t-60.5 41t-49 42t-47 52t-26.5 56.5t-12 71z " />
<glyph unicode="t" horiz-adv-x="659" d="M41 797q10 18 27 24q98 49 170 246q6 31 51 31q43 0 43 -34l-3 -108q0 -45 3 -75q0 -2 4 -3t8 -2.5t6 -1.5h199q20 0 36.5 -14t8.5 -43q-8 -37 -21 -69q-14 -27 -51 -27l-170 4q-20 0 -20 -33v-319q0 -150 22.5 -195t77.5 -45q51 0 100 92q14 25 40 22t40 -18 q11 -14 11 -32q0 -12 -5 -27q-85 -193 -249 -193q-104 0 -169 76t-65 193v80v368q0 25 -10 27q-23 2 -72 8q-16 27 -16 48q0 11 4 20z" />
<glyph unicode="u" horiz-adv-x="1093" d="M44 780q-4 9 -4 19.5t4 20.5q7 22 34 28q25 6 110.5 30.5t126.5 32.5q29 6 43.5 -12t14.5 -39v-481q0 -152 30.5 -197t118.5 -45q82 0 203 92q0 2 2 7.5t3 9.5t1 8v336v45q0 102 -49 113q-20 4 -58 10t-57 8q-23 12 -22.5 48t28.5 42q227 49 295 57h8q55 0 56 -51v-626 v-62q0 -18 11 -24.5t19.5 -4.5t28.5 7q6 2 20.5 6t20.5 6q27 4 39 -20q8 -15 8 -31q0 -9 -3 -19q-7 -28 -29 -33q-117 -50 -230 -73q-18 -4 -32 -4q-51 0 -52 51q0 2 -1 12t-2 28.5t-1 28.5q0 18 -18 5q-59 -41 -92 -62.5t-91.5 -44t-111.5 -22.5q-125 0 -186.5 77.5 t-61.5 212.5v416q0 27 -5 36t-24 15q-14 4 -40.5 11.5t-39.5 11.5q-8 2 -15 20z" />
<glyph unicode="v" horiz-adv-x="1048" d="M14 792q-2 8 -2 14q0 20 13 36q6 16 20 16q6 1 36 1q45 0 142 -2q69 -1 124 -1q73 0 120 2q14 0 23.5 -16.5t9.5 -35t-10.5 -34.5t-26.5 -16h-19q-53 0 -65 -4t-12 -17q0 -18 79.5 -207.5t110.5 -257.5q4 -10 8 -12t6 3t7 15q6 14 75.5 179.5t98.5 226.5q6 25 -0.5 40 t-34 22.5t-44 9.5t-30.5 2q-27 0 -33 18q-12 29 -2 62q6 22 29 22h2q81 -2 170 -2t186 2q37 0 37 -51q-4 -45 -31 -49q-55 -6 -81.5 -38t-79.5 -155l-246 -551q-18 -33 -35 -34q-7 -1 -21 -1h-16q-28 1 -37 5q-16 6 -32 39l-260 583q-10 23 -22.5 51.5t-16.5 36.5t-8.5 15.5 t-9.5 13.5t-8 10t-10 7t-10.5 5.5t-12.5 3.5t-12 2t-15.5 3t-16.5 2q-31 6 -37 36z" />
<glyph unicode="w" horiz-adv-x="1574" d="M18 788q-2 10 -2 18q0 20 9 32q12 18 38 14q332 0 375 2q31 0 41 -33q8 -16 1 -40.5t-29 -26.5q-78 -2 -78 -24.5t178 -455.5q10 -25 22 0l154 357q-35 70 -55 90q-31 29 -74 29q-12 2 -26.5 2t-24.5 16t-10 33q-2 18 6 35.5t24 17.5q194 -5 297 -5q77 0 103 3l12 2h7 q38 0 43 -42q1 -8 1 -15q0 -34 -20 -45q-92 -2 -92 -29q0 -20 28 -88l154 -356q8 -25 18 2q35 80 74 176q82 193 88 227q6 29 -5 44t-26.5 18.5t-46.5 5.5h-47q-20 6 -21 54t29 48q72 -2 158.5 -2t187.5 2q4 1 8 1q23 1 31 -21q6 -14 6 -28q0 -12 -4 -24q-8 -28 -26 -30 q-68 -4 -88 -31q-10 -14 -39 -84q-117 -272 -264 -635q-6 -16 -37 -20q-27 -4 -52 2q-33 2 -45 28l-194 463q-12 25 -21 6q-43 -88 -115.5 -262t-88.5 -211q-10 -27 -33 -31q-12 -4 -28.5 -4t-35.5 4q-23 6 -37 37l-245 586q-45 104 -67.5 126t-90.5 26q-19 2 -25 36z" />
<glyph unicode="x" horiz-adv-x="1097" d="M18 43q0 51 37 51q68 2 105 23.5t114 111.5l154 172q10 12 -2 27l-143 188q-72 92 -105 115t-112 25q-23 6 -22 53q1 45 33 45h3q53 -3 149.5 -3t237.5 3h8q29 0 37 -23.5t-1 -48t-24 -24.5h-18q-43 0 -45 -10q0 -6 4 -13q20 -33 69.5 -97.5t67.5 -82.5q4 -6 25 14 q117 117 117 162q0 8 -3.5 12.5t-19.5 8.5t-47 4q-4 0 -9 1t-7.5 1t-5.5 2t-6 6t-7 12q-4 10 -4 47q5 30 31 30q5 0 10 -1q148 -2 242.5 -2t134.5 2q4 1 9 1q24 0 36 -21q12 -20 4 -49t-41 -29h-13q-70 0 -107 -20q-40 -22 -101 -91l-78 -82l-76 -84q-6 -8 -2 -12 q41 -49 74 -92t50 -65.5t28 -35.5l71 -92q39 -49 73 -65.5t97 -20.5q31 -4 31 -57q0 -16 -1 -22.5t-10.5 -13.5t-29.5 -7q-89 2 -172 2q-125 0 -237 -4q-41 0 -41 49t36 49h17q49 0 49 10q0 6 -9 19.5t-22.5 28t-15.5 18.5l-111 147q-12 18 -18 13q-2 -2 -50 -54.5 t-82 -93.5t-34 -53q0 -16 15.5 -23.5t68.5 -11.5h16q35 -4 35 -51q0 -25 -9 -37q-8 -10 -23 -10h-5q-73 5 -187 5q-86 0 -194 -3q-16 0 -24 7t-10.5 13.5t-4.5 26.5z" />
<glyph unicode="y" horiz-adv-x="1005" d="M20 786q-5 12 -5 24t5 24q11 24 43 24h27h336q35 0 45 -23.5t1 -49t-28 -29.5q-43 0 -61 -6q-10 -2 -14 -9.5t-3 -18.5t4 -18.5t9 -20.5t6 -15q29 -61 55.5 -127t57 -150t49.5 -129q8 -20 22 17l101 272q47 121 47 156q0 29 -17.5 39t-83.5 10q-18 12 -22 52t29 48h20 q61 0 155.5 1t145.5 1q35 0 46 -30q5 -14 5 -26q0 -15 -8 -28q-6 -12 -26 -18q-53 -4 -87 -47t-92 -197l-243 -664q-43 -115 -84 -213q-33 -72 -76 -127q-39 -49 -117 -49q-45 0 -81 36t-36 81q0 70 117 105q27 6 50.5 20t39 25.5t29.5 37t21.5 37t16.5 47t11 45t10.5 50.5 t8.5 47l-246 592q-51 125 -72.5 147.5t-85.5 28.5q-16 4 -25 28z" />
<glyph unicode="z" horiz-adv-x="839" d="M22 28q-2 10 -3 18q0 19 12 32l10 10l461 617q12 16 0 16q-43 0 -126 -3t-128 -3q-33 0 -49.5 -26.5t-44.5 -141.5q-6 -10 -21 -17h-4q-16 0 -26.5 1t-25 4.5t-20.5 11.5t-4 20q0 6 2 11q31 195 56 294q4 23 14 25q2 2 6 2q15 8 37 8q7 0 14 -1q31 -3 31 -23.5t10 -25.5 t53 -5q250 4 370 5q40 0 65 -1q4 0 20.5 1t22.5 0t17 -5t20 -14q5 -17 5 -32q0 -22 -12 -36q-137 -176 -454 -623q-6 -10 -3 -12t17 -2q52 -1 120.5 -1t153.5 1q39 2 50.5 17.5t50.5 105.5q4 6 6 12t4 7t12 4q13 2 25 2q27 0 43 -13q9 -9 9 -19q0 -6 -3 -11l-80 -213 q-10 -18 -43 -29h-649q-13 0 -21 32z" />
<glyph unicode="{" horiz-adv-x="1026" d="M205 455q-6 16 0 34q2 27 28 35q94 18 145.5 69.5t51.5 113.5q0 39 -22 145q-23 90 -23 172q0 164 112.5 285t288.5 147q29 0 37 -26q4 -14 4 -58q-2 -10 -8 -14t-16 -5t-12 -1q-199 -43 -199 -211q0 -55 18 -146q23 -117 23 -180q0 -145 -117 -258q-53 -53 -115 -84 q-6 0 2 -4q229 -123 230 -340q0 -66 -21 -178q-18 -84 -18 -144q0 -160 201 -217q27 -4 34 -26q8 -26 -2 -53q-10 -20 -21 -22.5t-22 1.5q-176 29 -286.5 148.5t-110.5 281.5q0 68 23 164q23 117 22 149q0 68 -51 117t-152 70q-20 8 -24 35z" />
<glyph unicode="|" horiz-adv-x="1093" d="M473 31v1659q0 27 2 40t14.5 22t34.5 9q37 -8 58 -4q16 0 26 -2t14.5 -8t5.5 -10t0 -18.5t-1 -18.5v-836q0 -752 -2 -844v-8q0 -23 -1 -32t-10.5 -17t-29.5 -8q-27 4 -60 0q-51 0 -51 76z" />
<glyph unicode="}" horiz-adv-x="1026" d="M207 -463q0 2 1 10.5t1 12.5q8 31 31 34q201 43 200 209q0 55 -21.5 163t-21.5 163q0 141 117 258q55 55 117 86q2 0 -2 4q-231 123 -232 338q0 51 20.5 158.5t20.5 163.5q0 123 -116 180q-12 6 -40 18.5t-40 18.5q-25 12 -31 22t-4 33q0 18 11 33.5t30 13.5 q176 -29 287.5 -148.5t111.5 -281.5q0 -53 -23.5 -156.5t-23.5 -156.5q0 -63 47 -111.5t137 -71.5q43 -12 43 -53q0 -51 -41 -59q-88 -18 -136 -67.5t-48 -110.5q0 -53 23.5 -158t23.5 -160q0 -158 -105.5 -276.5t-273.5 -151.5q-31 -6 -50 3t-13 40z" />
<glyph unicode="~" horiz-adv-x="1161" d="M39 537q8 135 95 224t214 89q117 0 285 -86q160 -82 231 -82q59 0 93 28.5t42.5 62.5t22.5 60.5t41 24.5l22 -2q18 -2 33 -13.5t12 -29.5q-10 -137 -94 -228t-209 -91q-119 0 -299 88l-51 25.5t-64.5 30.5t-56 19.5t-59.5 10.5q-57 0 -99 -38t-51 -106q-4 -29 -31.5 -36 t-52 8.5t-24.5 40.5z" />
<glyph unicode="&#xa1;" horiz-adv-x="557" d="M158 758q0 51 34.5 86t88 35t86 -34t32.5 -87t-32.5 -85t-86 -32t-88 32t-34.5 85zM164 -406l69 924q10 25 46 25t47 -25l73 -926q6 -53 -11.5 -77.5t-74.5 -24.5h-59q-61 0 -77.5 25.5t-12.5 78.5z" />
<glyph unicode="&#xa2;" horiz-adv-x="915" d="M88 389q0 211 147.5 358.5t356.5 147.5q6 0 16 -1t15 -1q14 0 18 14l86 226q10 20 17.5 25t25.5 3q10 0 31.5 -9t25.5 -13q12 -12 2 -41l-88 -221q-2 -4 2 -9q113 -45 113 -127q0 -41 -27.5 -67.5t-70.5 -26.5q-45 0 -88 37q-2 2 -4 -6q-2 -2 -2 -4l-215 -537 q-10 -31 98 -31q68 0 116 31t103 99q10 12 19.5 16t17.5 2t17 -7t20 -11q37 -23 2 -70q-143 -211 -369 -211q-43 0 -88 10q-2 0 -12 -20q-86 -227 -109 -279q-16 -35 -23.5 -41t-23.5 -2q-4 0 -16.5 5t-22.5 7q-35 6 -16 56l119 299q6 14 -2 18q-88 57 -139.5 159.5 t-51.5 221.5zM289 434q0 -131 65 -221q8 -18 13 -2l213 534q2 16 -7 21q-18 8 -49 8q-90 0 -162.5 -98t-72.5 -242z" />
<glyph unicode="&#xa3;" horiz-adv-x="1630" d="M20 -395q0 63 78 136t176 116q59 109 105 225q8 23 10 29l2 2h-233h-17q-8 0 -24 4q-29 12 -13 67q8 45 60 45h270q23 57 72 194.5t77.5 213.5t78 184.5t100.5 194.5q246 416 555 416q109 0 195.5 -51.5t86.5 -133.5q0 -41 -29.5 -68.5t-72.5 -27.5q-51 0 -102 51 q-12 8 -29 29q-61 61 -129 61q-76 0 -145 -88q-78 -106 -162 -315q-176 -438 -275 -651l-6 -11l2 2h2q49 0 144.5 1t144.5 1q51 0 39 -55q-8 -37 -22.5 -52t-51.5 -15l-313 4q-45 -89 -111 -183q59 16 138 17q160 0 337 -133q102 -74 132 -90q68 -39 129 -39 q66 0 109.5 37.5t43.5 84.5q0 27 -28.5 78.5t-28.5 81.5q0 45 29.5 75t74.5 30q59 0 93 -51.5t34 -120.5q0 -150 -131 -265.5t-293 -115.5q-125 0 -225 65q-31 20 -109.5 86t-144 105t-125.5 39q-57 0 -143 -39q-57 -111 -128 -182.5t-136 -71.5q-35 0 -63 23.5t-28 60.5z " />
<glyph unicode="&#xa5;" horiz-adv-x="1071" d="M-14 1405q-2 20 11 28.5t30 8.5q231 -8 432 2q43 2 43 -37q0 -8 2 -25.5t0 -27.5v2q-2 -18 -29 -27q-98 0 -98 -29q0 -4 16 -47l53 -127q2 -6 33 -6h226q14 0 18 10q63 154 63 170q0 25 -55 29q-4 0 -15 1t-16.5 3t-13.5 5t-11 9.5t-3 16.5v33q0 39 35 39q39 0 109.5 -2 t123.5 -1t109 5q18 2 30.5 -8.5t12.5 -22.5v-37q0 -41 -39 -41q-49 0 -77 -23.5t-65 -111.5q-27 -51 -30 -74h6h151q16 0 24.5 -10t8.5 -15v-24v-41q0 -20 -1 -27.5t-8 -15.5t-24 -8h-207q-10 0 -14 -8l-55 -123q-4 -4 -1 -8t7 -4l276 4q27 -8 27 -47v-50q0 -49 -43 -49 l-297 2q-41 0 -47 -18l-29 -62v-344q0 -117 18.5 -141.5t84.5 -24.5h22q51 0 51 -45v-28q0 -20 -8 -29.5t-18 -11.5t-29 0q-250 14 -487 0q-18 -2 -32.5 9t-12.5 34q0 4 1 18.5t3 20.5t6 15t13 13t24 4h16q78 0 95.5 24t17.5 142v324l-43 92q-4 8 -23 8h-309q-37 0 -37 54 v47q0 27 7.5 35t33.5 8q197 -4 221 -4h43l-53 127q-6 16 -12 16h-209q-18 0 -24.5 9t-6.5 38v47q0 27 7.5 37t29.5 10h143q4 4 4.5 11.5t-7 23.5t-10.5 25.5t-7 15.5q-37 74 -64 100q-16 18 -36.5 25.5t-36 7.5t-27.5 8.5t-16 26.5q-6 12 -2 41zM512 973l66 -168q4 -18 10 0 l65 166q0 8 -8 8h-127q-6 0 -6 -6z" />
<glyph unicode="&#xa6;" horiz-adv-x="1093" d="M473 -45v803h154v-803h-154zM473 956v805h154v-805h-154z" />
<glyph unicode="&#xa7;" horiz-adv-x="1005" d="M98 872q0 227 146.5 393.5t351.5 166.5q43 0 106.5 -14.5t126 -56.5t62.5 -99q0 -43 -33 -76t-76 -33q-45 0 -102 53q-4 4 -9 8.5t-10.5 10.5t-7.5 8q-61 70 -118 70q-66 0 -112 -41t-46 -99q0 -16 7 -39.5t22.5 -52.5t29 -52.5t36 -57t34.5 -51t34.5 -49.5t26.5 -36 q166 -236 229.5 -348t94.5 -227q23 -88 22 -201q0 -215 -149 -374.5t-352 -159.5q-104 0 -194.5 46t-90.5 120q0 39 28.5 73.5t71.5 34.5q12 0 22.5 -2t20 -8t15.5 -9t16 -14.5t13 -14.5t14.5 -16.5t13.5 -15.5q63 -70 137 -69q61 0 109.5 42t48.5 89q0 76 -113 233 q-199 276 -305 467q-121 211 -121 401zM266 1055q-76 -211 56 -465q55 -111 184 -301.5t178 -278.5q47 -86 61 -123q23 59 23 142q0 223 -150 450q-33 49 -113.5 170t-121.5 189q-25 37 -72 117.5t-45 99.5z" />
<glyph unicode="&#xa8;" horiz-adv-x="712" d="M49 1108q0 51 38 87t95 36q55 0 93 -36t38 -87q0 -53 -36.5 -88t-94 -35t-95.5 35t-38 88zM401 1108q0 51 38 87t93 36q57 0 94.5 -36t37.5 -87t-37.5 -87t-94.5 -36q-55 0 -93 36t-38 87z" />
<glyph unicode="&#xa9;" horiz-adv-x="1630" d="M72 713q0 305 220 522t527 217t527.5 -216t220.5 -523q0 -305 -220.5 -522.5t-527.5 -217.5t-527 217.5t-220 522.5zM203 713q0 -254 181 -434.5t435 -180.5t435.5 180.5t181.5 434.5q0 256 -180.5 435t-436.5 179t-436 -179t-180 -435zM336 715q0 203 146.5 337 t361.5 134q76 0 184 -37q16 -6 27 -6q6 0 22 43h53q35 0 41 -39q0 -6 7.5 -101.5t9.5 -138.5q2 0 0 -10v-8q-4 -31 -27 -31h-39q-25 0 -35 23q-2 4 -4 13t-4 13q-68 174 -248 174q-125 0 -199.5 -89t-74.5 -249q0 -176 75 -267t210 -91q92 0 146 29.5t124 107.5 q6 8 13.5 12.5t17.5 1t13 -4.5t15 -7l15 -8q37 -20 8 -57q-149 -195 -385 -195q-201 0 -337 129t-136 322z" />
<glyph unicode="&#xaa;" horiz-adv-x="557" d="M37 954q0 102 156 138q66 16 114 38v78q0 80 -63 80q-16 0 -37 -16q-14 -14 -10 -31q0 -2 2 -5t3 -8t3 -11l-117 -52q-25 -12 -33 13q-10 29 -10 36q0 53 92 117q70 49 135 49q98 0 144.5 -47t46.5 -147v-158v-53q0 -31 4 -31q10 0 53 27q18 12 30.5 -7.5t14.5 -39.5 q4 -12 -10 -27q-98 -74 -149 -74q-53 0 -76 39q-9 10 -15 6q-61 -45 -129 -45q-63 0 -106 36t-43 95zM186 965q0 -39 45 -39q18 0 47 20.5t29 32.5v63h-4q-4 -2 -12 -4t-17 -6q-59 -23 -73.5 -36t-14.5 -31z" />
<glyph unicode="&#xab;" horiz-adv-x="759" d="M68 446q-23 31 8 68l280 346l9 10q6 8 16 9h53q43 0 29 -29l-195 -375l187 -364q23 -45 -19 -45h-45q-20 0 -39 24zM352 453q-16 23 13 63l213 303l8 15q6 10 26 10h47q35 0 21 -37l-125 -332l123 -332q14 -45 -23 -45h-51q-10 0 -24 23z" />
<glyph unicode="&#xac;" horiz-adv-x="1429" d="M135 848v170h1165v-645h-176v475h-989z" />
<glyph unicode="&#xad;" horiz-adv-x="890" d="M82 446v58q0 23 20.5 33t38.5 10h629q20 0 35.5 -13.5t13.5 -29.5l-4 -53q-8 -33 -41 -37q-309 -4 -651 0q-29 0 -41 32z" />
<glyph unicode="&#xae;" horiz-adv-x="1630" d="M53 713q0 313 221.5 534t536.5 221q313 0 535.5 -221t222.5 -534q0 -311 -222.5 -532.5t-535.5 -221.5q-315 0 -536.5 221t-221.5 533zM182 713q0 -260 184.5 -443.5t444.5 -183.5q262 0 446.5 183.5t184.5 443.5t-184.5 443t-446.5 183q-260 0 -444.5 -183t-184.5 -443z M399 297v31q0 35 35 34q43 2 55.5 18.5t12.5 82.5v508q0 70 -8.5 84t-42.5 16q-39 0 -39 37v27q0 33 49 32q84 -6 356 0q139 0 229.5 -67.5t90.5 -179.5q0 -160 -179 -228q-16 -6 -17 -9t9 -17l170 -232q31 -43 48.5 -56t43.5 -16q31 -4 31 -24v-29q0 -45 -55 -45 q-74 4 -133 0q-39 0 -56 23l-272 370h-10q-12 0 -12 -4v-20v-172v-72q0 -14 11 -18t35.5 -5t34.5 -4q4 0 10.5 -1t9.5 -2t7 -3t5 -7t1 -11v-47q0 -27 -41 -27q-184 12 -338 0q-41 0 -41 33zM705 793q0 -31 14 -31q98 2 148.5 42t50.5 103q0 66 -46 110t-118 44q-31 0 -49 -6 v-262z" />
<glyph unicode="&#xaf;" horiz-adv-x="714" d="M14 1071v72q0 35 58 35h18h557q27 0 39 -8.5t12 -34.5v-70q0 -41 -57 -41h-578q-23 0 -34 8t-13 16.5t-2 22.5z" />
<glyph unicode="&#xb0;" horiz-adv-x="849" d="M88 1053q0 139 98.5 236t239.5 97t240.5 -97t99.5 -236q0 -137 -99.5 -234.5t-240.5 -97.5t-239.5 97t-98.5 235zM238 1053q0 -76 55 -130.5t133 -54.5t134 54.5t56 130.5q0 78 -56 132t-134 54t-133 -54.5t-55 -131.5z" />
<glyph unicode="&#xb1;" horiz-adv-x="1429" d="M135 846v74q0 33 17.5 42t58.5 9h391q27 0 27 33v370q0 6 -1 13.5t-1 11.5q0 68 49 67h74q29 0 42 -14t13 -51v-404q4 -27 35 -26h397q63 0 63 -56v-61q0 -27 -11 -40t-23 -15t-35 -2h-381q-16 0 -30.5 -8.5t-14.5 -16.5v-405q0 -39 -9.5 -50.5t-45.5 -11.5h-64 q-37 2 -47 15.5t-10 46.5v401q0 29 -25 29h-405q-27 0 -36 1t-18.5 12t-9.5 36zM137 33v53q0 20 3 32.5t17.5 23t41.5 8.5h303.5h433h303.5q61 -2 61 -62v-51q0 -43 -12 -53.5t-51 -10.5q-651 4 -1024 -2q-33 0 -45 2t-21.5 15.5t-9.5 44.5z" />
<glyph unicode="&#xb2;" horiz-adv-x="614" d="M8 653v35q51 63 168 162q61 49 88 71.5t67 76t40 98.5q0 37 -30 62.5t-73 25.5q-98 0 -139 -115q-8 -16 -57 -16t-52 28q10 111 88 176.5t191 65.5q109 0 184.5 -59.5t75.5 -153.5q0 -47 -14.5 -85t-55 -75t-57 -49t-76.5 -53q-53 -33 -114 -86h151q55 0 62 4 q8 8 11 28.5t10 33t30 12.5h43q35 0 35 -35q-16 -125 -21 -146q-8 -43 -57 -43h-457q-23 0 -32 7.5t-9 29.5z" />
<glyph unicode="&#xb3;" horiz-adv-x="614" d="M18 713q0 35 26 56.5t58 21.5q37 0 91.5 -39t82.5 -39q45 0 81 39t36 96q0 41 -22.5 67.5t-51.5 26.5q-31 0 -57 -22q-53 -29 -84 18q-8 16 -3 36.5t20 31.5q70 43 105.5 79.5t35.5 57.5q0 18 -17.5 32.5t-46.5 14.5q-72 0 -120 -88q-35 -41 -74 -13.5t-31 56.5 q84 178 264 178q78 0 136.5 -40t58.5 -109q0 -66 -57 -117q127 -49 126 -183q0 -113 -104 -192.5t-235 -79.5q-78 0 -148 28.5t-70 82.5z" />
<glyph unicode="&#xb4;" horiz-adv-x="714" d="M231 1014l97 303q16 37 55 37h168q20 2 36.5 -7.5t12.5 -31.5q0 -13 -20 -33l-263 -303q-14 -20 -55 -10t-31 45z" />
<glyph unicode="&#xb6;" horiz-adv-x="1011" d="M-25 928q0 199 130.5 310.5t357.5 113.5q442 0 477 2q33 2 46 -8.5t13 -40.5v-48q0 -23 -11 -33t-18.5 -11t-25.5 -1h-53q-12 0 -19.5 -11t-7.5 -23v-1635q0 -31 -10 -39t-45 -8h-35q-55 0 -55 45l2 1637q0 31 -21 30h-79q-16 0 -17 -26l2 -1647q0 -41 -53 -41h-45 q-31 0 -41 11.5t-10 37.5v936q0 29 -17 29q-307 6 -415 213q-49 90 -50 207z" />
<glyph unicode="&#xb7;" horiz-adv-x="526" d="M141 702.5q0 45.5 37 80t86 34.5q51 0 86 -33.5t35 -81.5q0 -45 -36 -79.5t-85 -34.5t-86 34.5t-37 80z" />
<glyph unicode="&#xb8;" horiz-adv-x="714" d="M203 -252l166 272h100l-63 -114q57 -12 94 -59.5t37 -108.5q0 -82 -58.5 -139.5t-142.5 -57.5q-18 0 -37.5 2t-45.5 10.5t-30 21.5t6 38q0 2 3.5 7t5.5 7q8 12 20 15.5t31.5 -0.5t25.5 -4q31 0 52.5 20t21.5 47q0 49 -33 49q-18 0 -110 -45q-23 -12 -42.5 -3t-0.5 42z " />
<glyph unicode="&#xb9;" horiz-adv-x="614" d="M93 1100.5q-17 29.5 3 52.5q137 84 197 154q6 10 62.5 4t56.5 -23v-551v-12q0 -4 8 -4q4 0 23.5 -2t27.5 0q4 0 11 -1t10.5 -2t8.5 -3t8 -4t5 -7.5t2 -11.5q2 -6 2 -26q0 -18 -10.5 -35t-24.5 -17q-158 6 -311 0q-16 0 -26.5 17.5t-10.5 34.5q0 47 33 51l57 6q18 2 19 14 v381q-43 -23 -101 -43q-33 -2 -50 27.5z" />
<glyph unicode="&#xba;" horiz-adv-x="737" d="M49 1102q0 121 92 199.5t227.5 78.5t227.5 -78.5t92 -199.5q0 -119 -92 -199t-223 -80q-137 0 -230.5 79t-93.5 200zM215 1139q0 -96 52 -160t122 -64q57 0 96 44.5t39 113.5q0 92 -53 154.5t-121 62.5q-57 0 -96 -42t-39 -109z" />
<glyph unicode="&#xbb;" horiz-adv-x="759" d="M80 141l127 330l-123 332q-8 14 -3 29.5t23 15.5h46h6q12 0 26 -23l226 -329q16 -23 -11 -64l-213 -305q-2 -4 -6 -10t-5 -7t-5 -4.5t-8 -3.5h-10h-48q-37 0 -22 39zM299 96l195 377l-187 363q-23 45 19 45h45q20 0 39 -25l284 -356q10 -20 6 -38t-16 -30l-278 -346 q-16 -18 -33 -18h-47q-41 0 -27 28z" />
<glyph unicode="&#xbc;" horiz-adv-x="1464" d="M93 1093.5q-17 28.5 3 55.5q145 88 207 160q6 10 64.5 3t58.5 -24v-569q0 -16 10 -17h32t32 -2q37 -10 37 -57q0 -20 -10.5 -36.5t-24.5 -16.5q-166 6 -326 0q-39 0 -39 55q6 49 35 51l64 4q10 0 12 2.5t2 14.5v393q-16 -8 -51 -22.5t-54 -22.5q-35 0 -52 28.5zM184 -41 q-6 29 6 43l953 1327l4 10q12 12 31 13h6h84q18 0 25 -20.5t-7 -43.5l-954 -1333q-16 -25 -45 -25h-66q-31 0 -37 29zM786 211v37l365 461q43 12 74 6q14 -2 26.5 -14.5t10.5 -30.5v-357l16 -8h63q49 0 50 -47q0 -55 -7 -68q-10 -23 -32 -22h-78q-12 -4 -12 -25l2 -133 q0 -18 -2 -26.5t-11.5 -14.5t-27.5 -6h-47q-48 0 -56 2q-25 2 -35 35v141q-2 27 -10 27h-239q-49 0 -50 43zM983 305h88q12 0 14 12l2 111q0 18 -10 4z" />
<glyph unicode="&#xbd;" horiz-adv-x="1464" d="M93 1098.5q-17 29.5 3 54.5q133 80 197 156q6 8 62.5 2t56.5 -23v-559v-12q0 -4 8 -4q4 0 23.5 -2t27.5 0q4 0 11 -1t10.5 -2t8.5 -3.5t8 -4.5t5 -7t2 -11q2 -6 2 -27q0 -18 -10.5 -35.5t-24.5 -17.5q-158 6 -311 0q-16 0 -26.5 17.5t-10.5 35.5q0 16 9.5 33t23.5 19 l57 6q18 2 19 14v387q-31 -18 -101 -43q-33 -2 -50 27.5zM182 -40q-8 17 2 32l959 1339q10 12 16 16.5t15.5 5.5t17.5 3q2 0 13.5 -2t21.5 -3t23.5 -4.5t22.5 -8.5t15 -12t6 -16.5t-8 -21.5l-954 -1333q-27 -37 -47 -33q-4 2 -11 2l-57 13q-27 6 -35 23zM850 23v36 q55 68 168 164q2 2 24.5 20.5t29.5 24.5t27.5 23.5t30 28t25.5 28t23.5 30.5t16.5 30.5t13 33t4 31.5q0 37 -29.5 62.5t-74.5 25.5q-96 0 -137 -115q-8 -16 -58.5 -16t-50.5 29q10 113 88 179.5t191 66.5q106 0 183 -60.5t77 -157.5q0 -47 -15.5 -86t-53.5 -75.5t-58.5 -51 t-75.5 -53.5q-47 -31 -117 -86h154q55 0 61 2q4 4 12.5 40t39.5 36h43q35 0 34 -35q-18 -131 -20 -147q-10 -43 -57 -43h-457q-23 0 -32 6t-9 29z" />
<glyph unicode="&#xbe;" horiz-adv-x="1464" d="M25 690q0 35 26.5 57.5t61.5 22.5q39 0 92 -40t84 -40q47 0 84 40t37 97q0 43 -24 71t-54 28q-29 0 -58 -21q-39 -27 -61 -2q-39 33 -22.5 65.5t51 54t70.5 52.5t36 58q0 18 -17.5 32.5t-47.5 14.5q-74 0 -121 -93q-20 -20 -70.5 -2.5t-34.5 52.5q37 86 109 134t158 48 q80 0 141 -42t61 -114q0 -66 -59 -119q127 -51 127 -190q0 -115 -104.5 -197t-239.5 -82q-82 0 -153.5 29t-71.5 86zM181 -26.5q1 6.5 2 8.5t3 8l2 6l7 12l948 1323q29 41 67 25l43 -19q49 -23 27 -57l-948 -1325q-10 -14 -19.5 -22.5t-24 -9.5t-18.5 -1t-26.5 6t-26.5 9 q-10 4 -17 8t-11.5 9t-6.5 9t-1 10.5zM776 211v37l365 461q43 12 73 6q14 -2 26.5 -14.5t10.5 -30.5v-357l17 -8h63q49 0 49 -47q0 -55 -6 -68q-10 -23 -33 -22h-77q-12 -4 -13 -25l2 -133q0 -18 -2 -26.5t-11 -14.5t-28 -6h-47q-47 0 -55 2q-25 2 -35 35v141q-2 27 -10 27 h-240q-49 0 -49 43zM973 305h88q12 0 14 12l2 111q0 18 -10 4z" />
<glyph unicode="&#xbf;" horiz-adv-x="759" d="M72 -106q0 207 149 311q51 39 146 74q43 16 56 30.5t13 34.5q0 43 -71 127q-35 39 10 61q18 10 47 4t41 -24q106 -131 106 -233q0 -82 -40 -129.5t-132 -81.5q-127 -49 -170 -92.5t-43 -113t45 -109.5t131 -40q29 0 79 7.5t75 7.5q152 0 152 -107q0 -68 -59.5 -99.5 t-151.5 -31.5q-170 0 -276.5 112.5t-106.5 291.5zM291 758q0 53 38 89t93 36t93 -35t38 -90.5t-38 -91t-93 -35.5t-93 35.5t-38 91.5z" />
<glyph unicode="&#xc0;" horiz-adv-x="1452" d="M16 55.5q0 55.5 41 55.5q72 0 91.5 12t46.5 76q14 29 32 82l377 1007l-12 45q-4 14 10 27.5t39 15.5h68h26q59 0 80 -30q94 -248 186.5 -490t131 -344t59.5 -152q20 -53 57 -155q23 -66 43.5 -83.5t79.5 -17.5h14q39 0 39 -57q0 -23 -9 -40t-32 -15q-231 10 -538 2 q-27 -2 -36 15.5t-9 45.5q0 55 63 56q20 0 47 1t37 1q43 2 54.5 18t-3.5 55q-25 63 -68.5 181t-68.5 182q-6 12 -33 12h-307q-12 0 -30 -22q-41 -115 -125 -342q-10 -20 -11 -56q0 -39 121 -32q25 4 43 0q12 -2 22.5 -20.5t10.5 -41.5q-2 -20 -14.5 -36.5t-22.5 -16.5 q-334 6 -434 0h-27q-39 6 -39 61.5zM496 1810q-20 29 0 51.5t45 22.5l153 2q45 0 58 -28q47 -123 104 -332q0 -39 -37 -45t-53 14q-123 158 -270 315zM563 729q-4 -8 5.5 -10t23.5 -2q98 2 178 0q8 0 15.5 7t5.5 13q-45 121 -97 283q-2 8 -7 10t-9 0t-6 -4 q-20 -61 -62.5 -175t-46.5 -122z" />
<glyph unicode="&#xc1;" horiz-adv-x="1452" d="M16 55.5q0 55.5 41 55.5q72 0 91.5 12t46.5 76q14 29 32 82l377 1007l-12 45q-4 14 10 27.5t39 15.5h68h26q59 0 80 -30q94 -248 186.5 -490t131 -344t59.5 -152q20 -53 57 -155q23 -66 43.5 -83.5t79.5 -17.5h14q39 0 39 -57q0 -23 -9 -40t-32 -15q-231 10 -538 2 q-27 -2 -36 15.5t-9 45.5q0 55 63 56q20 0 47 1t37 1q43 2 54.5 18t-3.5 55q-25 63 -68.5 181t-68.5 182q-6 12 -33 12h-307q-12 0 -30 -22q-41 -115 -125 -342q-10 -20 -11 -56q0 -39 121 -32q25 4 43 0q12 -2 22.5 -20.5t10.5 -41.5q-2 -20 -14.5 -36.5t-22.5 -16.5 q-334 6 -434 0h-27q-39 6 -39 61.5zM563 729q-4 -8 5.5 -10t23.5 -2q98 2 178 0q8 0 15.5 7t5.5 13q-45 121 -97 283q-2 8 -7 10t-9 0t-6 -4q-20 -61 -62.5 -175t-46.5 -122zM598 1542l100 328q12 41 58 41q33 0 90 2t78 0q33 -2 48 -12.5t11 -30.5q-4 -19 -8 -23l-289 -344 q-10 -12 -34.5 -13t-43 13.5t-10.5 38.5z" />
<glyph unicode="&#xc2;" horiz-adv-x="1452" d="M16 55.5q0 55.5 41 55.5q72 0 91.5 12t46.5 76q14 29 32 82l377 1007l-12 45q-4 14 10 27.5t39 15.5h68h26q59 0 80 -30q94 -248 186.5 -490t131 -344t59.5 -152q20 -53 57 -155q23 -66 43.5 -83.5t79.5 -17.5h14q39 0 39 -57q0 -23 -9 -40t-32 -15q-231 10 -538 2 q-27 -2 -36 15.5t-9 45.5q0 55 63 56q20 0 47 1t37 1q43 2 54.5 18t-3.5 55q-25 63 -68.5 181t-68.5 182q-6 12 -33 12h-307q-12 0 -30 -22q-41 -115 -125 -342q-10 -20 -11 -56q0 -39 121 -32q25 4 43 0q12 -2 22.5 -20.5t10.5 -41.5q-2 -20 -14.5 -36.5t-22.5 -16.5 q-334 6 -434 0h-27q-39 6 -39 61.5zM408 1491l180 311q8 18 39 31q14 2 75.5 3t81.5 -1q37 -2 52 -31l178 -303q22 -47 -17 -57t-59 8l-231 197l-218 -197q-18 -12 -40.5 -11t-37 16.5t-3.5 33.5zM563 729q-4 -8 5.5 -10t23.5 -2q98 2 178 0q8 0 15.5 7t5.5 13 q-45 121 -97 283q-2 8 -7 10t-9 0t-6 -4q-20 -61 -62.5 -175t-46.5 -122z" />
<glyph unicode="&#xc3;" horiz-adv-x="1452" d="M16 55.5q0 55.5 41 55.5q72 0 91.5 12t46.5 76q14 29 32 82l377 1007l-12 45q-4 14 10 27.5t39 15.5h68h26q59 0 80 -30q94 -248 186.5 -490t131 -344t59.5 -152q20 -53 57 -155q23 -66 43.5 -83.5t79.5 -17.5h14q39 0 39 -57q0 -23 -9 -40t-32 -15q-231 10 -538 2 q-27 -2 -36 15.5t-9 45.5q0 55 63 56q20 0 47 1t37 1q43 2 54.5 18t-3.5 55q-25 63 -68.5 181t-68.5 182q-6 12 -33 12h-307q-12 0 -30 -22q-41 -115 -125 -342q-10 -20 -11 -56q0 -39 121 -32q25 4 43 0q12 -2 22.5 -20.5t10.5 -41.5q-2 -20 -14.5 -36.5t-22.5 -16.5 q-334 6 -434 0h-27q-39 6 -39 61.5zM367 1540q6 137 60 214t157 77q86 0 209 -84q74 -49 106 -49q25 0 35 21.5t11 48t15.5 49t43.5 24.5q43 0 45 -29q4 -14 4 -30q0 -113 -60.5 -191t-158.5 -78q-88 0 -205 82q-82 55 -107 56q-18 0 -29.5 -14.5t-23.5 -61.5q0 -8 -3 -20.5 t-3 -18.5q-12 -25 -50 -30t-46 34zM563 729q-4 -8 5.5 -10t23.5 -2q98 2 178 0q8 0 15.5 7t5.5 13q-45 121 -97 283q-2 8 -7 10t-9 0t-6 -4q-20 -61 -62.5 -175t-46.5 -122z" />
<glyph unicode="&#xc4;" horiz-adv-x="1452" d="M16 55.5q0 55.5 41 55.5q72 0 91.5 12t46.5 76q14 29 32 82l377 1007l-12 45q-4 14 10 27.5t39 15.5h68h26q59 0 80 -30q94 -248 186.5 -490t131 -344t59.5 -152q20 -53 57 -155q23 -66 43.5 -83.5t79.5 -17.5h14q39 0 39 -57q0 -23 -9 -40t-32 -15q-231 10 -538 2 q-27 -2 -36 15.5t-9 45.5q0 55 63 56q20 0 47 1t37 1q43 2 54.5 18t-3.5 55q-25 63 -68.5 181t-68.5 182q-6 12 -33 12h-307q-12 0 -30 -22q-41 -115 -125 -342q-10 -20 -11 -56q0 -39 121 -32q25 4 43 0q12 -2 22.5 -20.5t10.5 -41.5q-2 -20 -14.5 -36.5t-22.5 -16.5 q-334 6 -434 0h-27q-39 6 -39 61.5zM406 1622q0 57 40.5 99t100 42t102.5 -42t43 -99q0 -59 -43 -100t-102.5 -41t-100 41t-40.5 100zM563 729q-4 -8 5.5 -10t23.5 -2q98 2 178 0q8 0 15.5 7t5.5 13q-45 121 -97 283q-2 8 -7 10t-9 0t-6 -4q-20 -61 -62.5 -175t-46.5 -122z M762 1622q0 59 42 100t101 41q61 0 102.5 -41t41.5 -100t-41.5 -100t-102.5 -41q-59 0 -101 41t-42 100z" />
<glyph unicode="&#xc5;" horiz-adv-x="1452" d="M16 55.5q0 55.5 41 55.5q72 0 91.5 12t46.5 76q14 29 32 82l377 1007l-12 45q-4 14 10 25.5t39 15.5h68h26q59 0 80 -28q94 -248 186.5 -490t131 -344t59.5 -152q20 -53 57 -155q23 -66 43.5 -83.5t79.5 -17.5h14q39 0 39 -57q0 -23 -9 -40t-32 -15q-231 10 -538 2 q-27 -2 -36 15.5t-9 45.5q0 55 63 56q20 0 47 1t37 1q43 2 54.5 18t-3.5 55q-25 63 -68.5 181t-68.5 182q-6 12 -33 12h-307q-12 0 -30 -22q-41 -115 -125 -342q-10 -20 -11 -56q0 -39 121 -32q25 4 43 0q12 -2 22.5 -20.5t10.5 -41.5q-2 -20 -14.5 -36.5t-22.5 -16.5 q-334 6 -434 0h-27q-39 6 -39 61.5zM489 1702q0 90 64.5 154.5t157.5 64.5q90 0 153.5 -64.5t63.5 -154.5t-63.5 -154.5t-153.5 -64.5q-92 0 -157 64.5t-65 154.5zM563 729q-4 -8 5.5 -10t23.5 -2q98 2 178 0q8 0 15.5 7t5.5 13q-45 121 -97 283q-2 8 -7 10t-9 0t-6 -4 q-20 -61 -62.5 -175t-46.5 -122zM623 1702q0 -35 25.5 -60.5t62.5 -25.5q35 0 59.5 24.5t24.5 61.5t-24.5 62.5t-59.5 25.5q-37 0 -62.5 -25.5t-25.5 -62.5z" />
<glyph unicode="&#xc6;" horiz-adv-x="1873" d="M-125 51q-4 27 10.5 36t40.5 11q61 6 100.5 40t102.5 138l541 885q25 39 24.5 55.5t-13.5 21.5t-71 5q-23 0 -37 9.5t-12 29.5l2 29q6 37 49 37q143 -4 543.5 -1t474.5 1q23 0 46.5 -12.5t25.5 -30.5q0 -6 18 -267q0 -8 -2 -12q0 -27 -30 -27h-31q-18 0 -29.5 12.5 t-14.5 21.5t-7 32q-20 90 -41 116.5t-54 26.5h-57h-311q-37 0 -37 -14v-401q0 -8 8 -19.5t23 -11.5l227 4q90 0 110.5 14.5t38.5 98.5q8 39 46 39h26q39 0 39 -52q0 -311 2 -356q4 -49 -35 -49q-18 -6 -39 -2q-33 0 -36 41q-12 88 -35 106.5t-113 16.5l-244 -5 q-18 0 -18 -38v-324q0 -88 21.5 -106.5t107.5 -18.5q45 -4 209 0q96 2 125.5 11.5t54.5 41.5q49 63 68 146q4 14 6 20t10 10.5t25 4.5h26q45 0 41 -60q-1 -47 -26 -258q-4 -55 -80 -55h-1047q-51 0 -51 43v31q0 25 39 34q16 4 84.5 5t105.5 25t39 87l2 72v200q0 14 -26 15 h-371q-14 0 -23 -15l-163 -264q-43 -72 -43 -94q0 -35 108 -35q23 0 33 -11t11 -19.5t3 -32.5q2 -45 -45 -45h-426q-27 -2 -36 15t-13 48zM551 664q-4 -8 1 -13.5t11 -5.5h271q10 0 21 11.5t11 21.5v479q0 18 -12 4q-131 -203 -303 -497z" />
<glyph unicode="&#xc7;" horiz-adv-x="1560" d="M98 649q0 315 213 514t551 199q72 0 135.5 -11.5t94 -21.5t129.5 -45q39 -12 57 2q12 10 45 7t37 -21q25 -104 20 -185v-122q-8 -35 -46 -43.5t-56 18.5q-104 303 -404 303q-233 0 -368 -149.5t-135 -405.5q0 -264 149.5 -434t382.5 -170q178 0 314 123q41 37 61 62.5 t55 90.5q10 18 39 23.5t50.5 -5.5t15.5 -36q-25 -80 -81.5 -210t-70.5 -128q-39 10 -57 10q-59 0 -150 -28q-82 -25 -180 -29q-18 0 -25 -14l-32 -58q-2 -4 22 -16q47 -18 77 -62.5t30 -101.5q0 -86 -67.5 -163t-149.5 -77q-47 0 -76 11q-51 20 -35 51q8 16 12 22 q8 12 20.5 13.5t31 -5t26.5 -6.5q29 0 61.5 41t32.5 72q0 25 -13 43.5t-30 18.5q-35 0 -106 -37q-25 -8 -33 12q-10 20 8 49l115 187q10 23 -6 22q-295 25 -479.5 216.5t-184.5 473.5z" />
<glyph unicode="&#xc8;" horiz-adv-x="1267" d="M37 57.5q8 53.5 41 57.5q14 2 88 2q78 2 102.5 30.5t24.5 139.5v753q0 106 -23.5 142.5t-111.5 36.5h-8.5h-9.5h-8t-8 1t-7 2t-7.5 2t-7.5 3t-7 5t-6 7t-5 10q-14 23 8 62q10 20 53 20q655 4 895 0q53 0 60 -39q8 -66 11 -118t4 -96t3 -60q-2 -18 -29.5 -25.5t-50.5 0.5 q-29 4 -28 39q-18 115 -48 139.5t-145 26.5q-182 6 -254 2q-8 0 -17 -8t-9 -18v-398q0 -20 26 -20h211q109 0 130.5 16t35.5 115q4 14 25.5 21t45 -3t29.5 -41q2 -45 2 -111.5t-1 -142t-1 -102.5q0 -31 -25.5 -42t-50 -4t-28.5 25q-14 92 -36.5 110.5t-131.5 18.5l-199 2 q-33 0 -32 -30v-314q0 -63 2 -84q2 -29 12 -38q16 -16 125 -17h145q109 0 142.5 7.5t54.5 33.5q45 49 69 152q6 29 37 37q59 4 70 -21q10 -20 0 -98q-2 -23 -11 -90.5t-16 -112.5q-6 -47 -100 -47q-563 4 -983 -2l-10 2q-45 8 -37 61.5zM408.5 1818.5q21.5 24.5 46.5 24.5 l155 2q39 0 58 -28q68 -188 100 -332q0 -41 -38 -45t-50 14q-104 137 -270 315q-23 25 -1.5 49.5z" />
<glyph unicode="&#xc9;" horiz-adv-x="1267" d="M37 57.5q8 53.5 41 57.5q14 2 88 2q78 2 102.5 30.5t24.5 139.5v753q0 106 -23.5 142.5t-111.5 36.5h-8.5h-9.5h-8t-8 1t-7 2t-7.5 2t-7.5 3t-7 5t-6 7t-5 10q-14 23 8 62q10 20 53 20q655 4 895 0q53 0 60 -39q8 -66 11 -118t4 -96t3 -60q-2 -18 -29.5 -25.5t-50.5 0.5 q-29 4 -28 39q-18 115 -48 139.5t-145 26.5q-182 6 -254 2q-8 0 -17 -8t-9 -18v-398q0 -20 26 -20h211q109 0 130.5 16t35.5 115q4 14 25.5 21t45 -3t29.5 -41q2 -45 2 -111.5t-1 -142t-1 -102.5q0 -31 -25.5 -42t-50 -4t-28.5 25q-14 92 -36.5 110.5t-131.5 18.5l-199 2 q-33 0 -32 -30v-314q0 -63 2 -84q2 -29 12 -38q16 -16 125 -17h145q109 0 142.5 7.5t54.5 33.5q45 49 69 152q6 29 37 37q59 4 70 -21q10 -20 0 -98q-2 -23 -11 -90.5t-16 -112.5q-6 -47 -100 -47q-563 4 -983 -2l-10 2q-45 8 -37 61.5zM500 1489l98 328q12 41 55 41l174 2 q20 0 36 -11.5t14 -36.5q-2 -2 -4.5 -8t-4.5 -10l-290 -344q-16 -23 -52.5 -11.5t-25.5 50.5z" />
<glyph unicode="&#xca;" horiz-adv-x="1267" d="M37 57.5q8 53.5 41 57.5q14 2 88 2q78 2 102.5 30.5t24.5 139.5v753q0 106 -23.5 142.5t-111.5 36.5h-8.5h-9.5h-8t-8 1t-7 2t-7.5 2t-7.5 3t-7 5t-6 7t-5 10q-14 23 8 62q10 20 53 20q655 4 895 0q53 0 60 -39q8 -66 11 -118t4 -96t3 -60q-2 -18 -29.5 -25.5t-50.5 0.5 q-29 4 -28 39q-18 115 -48 139.5t-145 26.5q-182 6 -254 2q-8 0 -17 -8t-9 -18v-398q0 -20 26 -20h211q109 0 130.5 16t35.5 115q4 14 25.5 21t45 -3t29.5 -41q2 -45 2 -111.5t-1 -142t-1 -102.5q0 -31 -25.5 -42t-50 -4t-28.5 25q-14 92 -36.5 110.5t-131.5 18.5l-199 2 q-33 0 -32 -30v-314q0 -63 2 -84q2 -29 12 -38q16 -16 125 -17h145q109 0 142.5 7.5t54.5 33.5q45 49 69 152q6 29 37 37q59 4 70 -21q10 -20 0 -98q-2 -23 -11 -90.5t-16 -112.5q-6 -47 -100 -47q-563 4 -983 -2l-10 2q-45 8 -37 61.5zM342 1518l176 311q8 18 39 31 q14 2 75.5 3t82.5 -1q35 -2 51 -31l176 -303q10 -12 8 -32t-22 -26q-39 -10 -60 9l-231 196l-217 -196q-18 -12 -40 -11.5t-36 16t-2 34.5z" />
<glyph unicode="&#xcb;" horiz-adv-x="1267" d="M37 57.5q8 53.5 41 57.5q14 2 88 2q78 2 102.5 30.5t24.5 139.5v753q0 106 -23.5 142.5t-111.5 36.5h-8.5h-9.5h-8t-8 1t-7 2t-7.5 2t-7.5 3t-7 5t-6 7t-5 10q-14 23 8 62q10 20 53 20q655 4 895 0q53 0 60 -39q8 -66 11 -118t4 -96t3 -60q-2 -18 -29.5 -25.5t-50.5 0.5 q-29 4 -28 39q-18 115 -48 139.5t-145 26.5q-182 6 -254 2q-8 0 -17 -8t-9 -18v-398q0 -20 26 -20h211q109 0 130.5 16t35.5 115q4 14 25.5 21t45 -3t29.5 -41q2 -45 2 -111.5t-1 -142t-1 -102.5q0 -31 -25.5 -42t-50 -4t-28.5 25q-14 92 -36.5 110.5t-131.5 18.5l-199 2 q-33 0 -32 -30v-314q0 -63 2 -84q2 -29 12 -38q16 -16 125 -17h145q109 0 142.5 7.5t54.5 33.5q45 49 69 152q6 29 37 37q59 4 70 -21q10 -20 0 -98q-2 -23 -11 -90.5t-16 -112.5q-6 -47 -100 -47q-563 4 -983 -2l-10 2q-45 8 -37 61.5zM332 1593q0 55 39 95.5t96 40.5 t97 -40t40 -96q0 -57 -41 -96t-96 -39t-95 39t-40 96zM670 1593.5q0 55.5 40 95.5t95 40q57 0 97 -40t40 -95.5t-40 -95.5t-97 -40q-55 0 -95 40t-40 95.5z" />
<glyph unicode="&#xcc;" horiz-adv-x="743" d="M96 45q0 18 10.5 37.5t26.5 21.5q84 8 100.5 24.5t18.5 90.5l2 70v760l-2 69q-2 72 -18.5 92.5t-88.5 28.5q-18 2 -29.5 13.5t-13.5 26.5t2.5 30.5t15.5 24.5t25 9q379 -4 461 0q49 4 53 -40q2 -20 -6 -42t-22 -24q-4 0 -13.5 -1t-15.5 -1q-80 -2 -97.5 -28.5 t-17.5 -157.5v-830q0 -78 29 -94q18 -12 64.5 -14t58.5 -7q27 -16 23.5 -64t-33.5 -46q-246 8 -488 0q-20 0 -32.5 14.5t-12.5 36.5zM136.5 1820.5q19.5 22.5 43.5 22.5l152 2q39 0 57 -28q61 -172 98 -332q2 -37 -33 -44t-53 13q-139 178 -264 315q-20 29 -0.5 51.5z" />
<glyph unicode="&#xcd;" horiz-adv-x="743" d="M96 45q0 18 10.5 37.5t26.5 21.5q84 8 100.5 24.5t18.5 90.5l2 70v760l-2 69q-2 74 -18.5 93.5t-88.5 27.5q-18 2 -29.5 13.5t-13.5 26.5t2.5 30.5t15.5 26t25 10.5q68 -2 131.5 -4.5t93 -3.5t88 0t148.5 5q49 4 53 -38q2 -23 -6 -44.5t-22 -23.5q-4 0 -13.5 -1t-15.5 -1 q-80 -2 -97.5 -28.5t-17.5 -157.5v-830q0 -78 29 -94q18 -12 64.5 -14t58.5 -7q27 -16 23.5 -64t-33.5 -46q-246 8 -488 0q-20 0 -32.5 14.5t-12.5 36.5zM231 1501l97 330q20 39 57 39q31 0 71 1t56 2t43 -1q90 -8 31 -80l-267 -330q-16 -23 -57 -11.5t-31 50.5z" />
<glyph unicode="&#xce;" horiz-adv-x="741" d="M78 1501l174 311q12 18 39 31q14 2 74.5 3t80.5 -1q35 -2 50 -30l174 -304q22 -47 -15 -57q-39 -10 -59 8l-227 197l-213 -197q-16 -12 -39 -11t-36 16.5t-3 33.5zM94 45q0 16 12.5 36.5t26.5 22.5q84 8 100.5 24.5t18.5 90.5l2 70v760l-2 69q-2 72 -18.5 91.5 t-88.5 27.5q-31 4 -41 30.5t2.5 51t36.5 24.5q80 0 158 -3t135.5 -3t171.5 6q37 2 48.5 -23.5t1 -53t-24.5 -31.5q-6 0 -16.5 -1t-12.5 -1q-80 0 -99.5 -26.5t-19.5 -157.5v-830q0 -74 31 -94q18 -12 64.5 -14t58.5 -7q33 -20 28 -66t-36 -44q-246 8 -490 0 q-20 0 -33.5 14.5t-13.5 36.5z" />
<glyph unicode="&#xcf;" horiz-adv-x="743" d="M55 1593q0 57 41 99.5t98.5 42.5t98.5 -41t41 -100.5t-40 -100.5t-99 -41q-57 0 -98.5 41t-41.5 100zM96 45q0 18 10.5 37.5t26.5 21.5q84 8 100.5 24.5t18.5 90.5l2 70v758l-2 69q-2 74 -18.5 93.5t-86.5 27.5q-31 2 -41 28.5t2.5 51t36.5 24.5q381 -4 463 0 q49 4 54 -41q4 -20 -5.5 -41.5t-23.5 -23.5q-6 0 -14.5 -1t-14.5 -1q-80 -2 -98.5 -28.5t-18.5 -157.5v-828q0 -76 29 -94q18 -12 65.5 -14t59.5 -7q27 -16 24 -64t-34 -46q-246 8 -490 0q-20 0 -32.5 14.5t-12.5 36.5zM406 1593.5q0 59.5 40.5 100.5t98.5 41q59 0 100 -41 t41 -100.5t-41 -100.5t-100 -41q-57 0 -98 41t-41 100.5z" />
<glyph unicode="&#xd0;" horiz-adv-x="1628" d="M12 655v70q2 2 0 13.5t11.5 24.5t39.5 13h154q6 0 13.5 12.5t7.5 24.5v242q0 133 -22.5 157.5t-133.5 24.5q-51 0 -51 57q0 49 49 60l166 6q152 6 459 6q203 0 341 -34t248 -113q125 -90 196 -221.5t71 -284.5q0 -231 -152 -422.5t-381 -257.5q-104 -31 -168.5 -37 t-271.5 -6q-438 0 -512 -2q-16 -2 -31.5 8t-15.5 31q0 45 6 55q8 12 16 18t13.5 7.5t18.5 0t19 -1.5q84 0 107.5 19.5t26.5 89.5q2 59 2 369q0 20 -21 20l-172 -2q-33 4 -33 53zM477 217q0 -86 19.5 -103.5t124.5 -17.5q145 0 212.5 9.5t135.5 41.5q143 66 229 210.5 t86 322.5q0 145 -54.5 268t-146.5 195q-63 47 -133.5 70.5t-189.5 35.5q-119 10 -191 11q-6 0 -28.5 2t-34.5 0q-29 -4 -29 -29v-424q0 -25 10.5 -29t51.5 -6q27 0 84 1t107 2t52 1q55 0 56 -57v-76q-6 -27 -15.5 -33t-38.5 -6l-288 -2q-18 0 -19 -29v-358z" />
<glyph unicode="&#xd1;" horiz-adv-x="1708" d="M65.5 79q12.5 30 51.5 30q131 0 131 94v991q-45 27 -148 31q-12 0 -20 17.5t-8 37.5q0 49 53 53q55 4 160.5 2t128.5 -2q39 0 65 -30l797 -895h-2q27 -31 26 -2v636q0 133 -18 152q-12 12 -45 18q-16 2 -53 4.5t-56 4.5q-25 0 -36 28.5t-0.5 56t38.5 27.5q145 -6 494 2 q29 0 35 -59q2 -51 -49 -51q-109 -4 -127.5 -22.5t-18.5 -127.5v-1046q0 -43 -58 -49.5t-73 16.5q-178 201 -468 527.5t-429 484.5q-4 2 -10 8q-8 -6 -10 -15v-704q0 -98 10 -129q8 -23 25.5 -35t30 -14t44 -2h37.5q51 -4 60 -27q14 -23 4.5 -60.5t-47.5 -35.5 q-326 6 -474 -2q-27 -2 -40 27.5t-0.5 59.5zM485 1507q6 137 60.5 214t156.5 77q86 0 209 -84q74 -49 107 -49q25 0 36 21.5t12 48t14.5 49t41.5 24.5q43 0 47 -28q4 -14 5 -31q0 -113 -62 -190.5t-160 -77.5q-88 0 -204 82q-78 53 -107 53q-18 0 -30.5 -13.5t-22.5 -60.5 q0 -2 -6 -39q-12 -25 -50 -30t-47 34z" />
<glyph unicode="&#xd2;" horiz-adv-x="1693" d="M92 641q0 315 214 522t544 207q324 0 532.5 -191.5t208.5 -482.5q0 -311 -213 -523t-532 -212q-324 0 -539 195.5t-215 484.5zM360 694q0 -266 146.5 -439t374.5 -173q236 0 339 152.5t103 402.5q0 274 -146 445t-384 171q-195 0 -314 -153.5t-119 -405.5zM659 1790 q-20 29 0.5 51.5t45.5 22.5l147 2q45 0 57 -29q51 -135 103 -332q0 -27 -16.5 -37t-36 -4.5t-29.5 15.5q-102 133 -271 311z" />
<glyph unicode="&#xd3;" horiz-adv-x="1693" d="M92 643q0 313 214 520t544 207q324 0 532.5 -191.5t208.5 -482.5q0 -311 -213 -523t-532 -212q-324 0 -539 195.5t-215 486.5zM360 694q0 -266 146.5 -439t374.5 -173q236 0 339 152.5t103 402.5q0 274 -146 445t-384 171q-195 0 -314 -153.5t-119 -405.5zM748 1483 l98 327q12 41 55 41q33 0 90.5 2t77.5 0q35 -2 49.5 -12t9.5 -31q0 -12 -6 -22l-297 -340q-16 -23 -53 -13.5t-24 48.5z" />
<glyph unicode="&#xd4;" horiz-adv-x="1693" d="M92 641q0 315 214 522t544 207q324 0 532.5 -191.5t208.5 -482.5q0 -311 -213 -523t-532 -212q-324 0 -539 195.5t-215 484.5zM360 694q0 -266 146.5 -439t374.5 -173q236 0 339 152.5t103 402.5q0 274 -146 445t-384 171q-195 0 -314 -153.5t-119 -405.5zM575 1481 l179 311q10 18 41 31q14 2 75.5 3t81.5 -1q35 -2 52 -31l176 -303q26 -47 -15 -57q-39 -12 -59 8l-232 196l-219 -196q-18 -12 -39.5 -11t-36 16t-4.5 34z" />
<glyph unicode="&#xd5;" horiz-adv-x="1693" d="M92 641q0 315 214 522t544 207q324 0 532.5 -191.5t208.5 -482.5q0 -311 -213 -523t-532 -212q-324 0 -539 195.5t-215 484.5zM360 694q0 -266 146.5 -439t374.5 -173q236 0 339 152.5t103 400.5q0 274 -146 445t-384 171q-195 0 -314 -152.5t-119 -404.5zM506 1489 q6 129 60.5 202.5t154.5 73.5q86 0 207 -79q74 -47 104 -48q25 0 36 20.5t12 46.5t14.5 47.5t42.5 21.5q12 2 27.5 -4.5t17.5 -22.5q4 -14 4 -29q0 -109 -60.5 -183.5t-156.5 -74.5q-86 0 -203 76q-82 55 -104 55q-18 0 -29.5 -12t-24.5 -57q0 -6 -1 -12.5t-3 -13.5t-2 -11 q-12 -23 -49 -28t-47 32z" />
<glyph unicode="&#xd6;" horiz-adv-x="1693" d="M92 641q0 315 214 522t544 207q324 0 532.5 -191.5t208.5 -482.5q0 -311 -213 -523t-532 -212q-324 0 -539 195.5t-215 484.5zM360 694q0 -266 146.5 -439t374.5 -173q236 0 339 152.5t103 400.5q0 274 -146 445t-384 171q-195 0 -314 -152.5t-119 -404.5zM526 1604 q0 57 42 99t101.5 42t101.5 -41t42 -100.5t-42 -100.5t-101.5 -41t-101.5 41t-42 101zM885 1603.5q0 59.5 42 100.5t101 41t101 -41t42 -100.5t-42 -100.5t-101 -41t-101 41t-42 100.5z" />
<glyph unicode="&#xd7;" horiz-adv-x="1431" d="M200 269q-3 24 19 48q117 111 363 357q16 14 2 28l-353 351q-14 12 -22 24.5t-8 23.5v19t9 19.5t13 16.5t18.5 18.5t18.5 17.5q55 27 82 0q166 -156 365 -365q12 -12 19 -11t26 18q162 147 331 340q14 16 46 25t49 -3q4 -2 25.5 -20.5t27.5 -25.5t15 -23.5t4 -31 t-21 -30.5q-25 -25 -175.5 -174.5t-197.5 -190.5q-12 -10 -2 -20l365 -356q14 -12 21 -23.5t6 -23t0 -17.5t-11 -18.5t-14 -14.5t-21 -16l-18 -14q-49 -39 -88 -2l-344 344q-29 27 -60 -7q-109 -117 -336 -331q-10 -10 -20 -15.5t-18.5 -8.5t-18.5 0t-15.5 5t-16.5 10.5 t-15 11.5t-16.5 14t-14.5 13q-16 14 -19 38z" />
<glyph unicode="&#xd8;" horiz-adv-x="1769" d="M92 649q0 313 230.5 524t566.5 211q248 0 442 -116q8 -4 27 16l112 139q33 27 66 4l16 -12q37 -29 -6 -76l-100 -114q-20 -20 -12 -29q233 -203 233 -498q0 -313 -227 -528t-557 -215q-229 0 -430 108q-16 8 -41 -16l-144 -168q-29 -25 -42 -23.5t-40 19.5q-39 35 -8 70 l146 161q20 27 10 35q-242 203 -242 508zM362 702q0 -238 115 -395q10 -10 14.5 -7t20.5 22q397 475 670 770q31 31 20 38q-150 136 -373 136q-203 0 -335 -156t-132 -408zM573 205q0 -6 2 -8q150 -125 345 -125q236 0 362 182q113 162 117 383t-105 385q-9 19 -34 -10 q-160 -182 -678 -779q-6 -6 -7.5 -14t-1.5 -14z" />
<glyph unicode="&#xd9;" horiz-adv-x="1669" d="M41 1287q-10 50 35 54q41 2 230.5 2t316.5 -2q27 0 35 -26.5t-3.5 -53t-33.5 -26.5h-19q-82 0 -106.5 -22.5t-26.5 -94.5q0 -16 -1 -45t-1 -43v-389q0 -240 90 -373t313 -133q285 0 369 225q31 80 31 269v362q0 162 -28 201t-136 41l-14 6q-25 6 -28 54t32 48 q225 4 499 0q39 0 39 -51q0 -45 -37 -53q-109 -4 -138 -43t-29 -195v-368q0 -131 -6.5 -198.5t-47.5 -157t-123 -160.5q-94 -82 -188 -118t-242 -36q-403 0 -547 313q-31 70 -39 128.5t-8 207.5v520q0 72 -22.5 88.5t-130.5 16.5q-25 2 -35 52zM620 1780q19 22 46 22l155 2 q41 0 58 -28q55 -143 102 -332q0 -29 -19.5 -39t-40 -6t-28.5 14q-113 145 -272 316q-20 29 -1 51z" />
<glyph unicode="&#xda;" horiz-adv-x="1669" d="M41 1287q-10 50 35 54q41 2 230.5 2t316.5 -2q27 0 35 -26.5t-3.5 -53t-33.5 -26.5h-19q-82 0 -106.5 -22.5t-26.5 -94.5q0 -14 -1 -42.5t-1 -45.5v-389q0 -240 90 -373t313 -133q285 0 369 225q31 80 31 269v362q0 162 -28 201t-136 43l-14 4q-25 6 -28 54t32 48 q225 4 499 0q39 0 39 -51q0 -45 -37 -53q-109 -4 -138 -43t-29 -195v-368q0 -131 -6.5 -198.5t-47.5 -157t-123 -160.5q-94 -82 -188 -118t-242 -36q-403 0 -547 313q-31 70 -39 128.5t-8 207.5v520q0 72 -22.5 88.5t-130.5 16.5q-25 2 -35 52zM715 1442l98 327q12 41 57 41 l179 2q27 0 42 -14t7 -39l-2 -2l-295 -354q-16 -23 -57.5 -11.5t-28.5 50.5z" />
<glyph unicode="&#xdb;" horiz-adv-x="1669" d="M40 1312.5q5 26.5 36 28.5q41 2 230.5 2t316.5 -2q27 0 35 -26.5t-3.5 -53t-33.5 -26.5h-19q-82 0 -106.5 -22.5t-26.5 -94.5q0 -16 -1 -45t-1 -43v-389q0 -240 90 -373t313 -133q285 0 369 225q31 80 31 269v362q0 162 -28 201t-136 41l-14 4q-25 8 -28 56t32 48 q225 4 499 0q39 0 39 -51q0 -45 -37 -53q-109 -4 -138 -44t-29 -194v-368q0 -131 -6.5 -198.5t-47.5 -157t-123 -160.5q-94 -82 -188 -118t-242 -36q-403 0 -547 313q-31 70 -39 128.5t-8 207.5v520q0 70 -22.5 86.5t-130.5 18.5q-14 0 -27.5 25.5t-8.5 52zM545 1511 l178 304q8 18 39 30q14 2 71.5 3t79.5 -1q33 -2 50 -30l186 -295q10 -12 8 -33t-22 -25q-39 -8 -62 9l-231 196l-217 -196q-18 -12 -41 -11.5t-37.5 16t-1.5 33.5z" />
<glyph unicode="&#xdc;" horiz-adv-x="1669" d="M41 1285q-10 50 35 54q41 4 230.5 4t316.5 -4q27 0 35 -26.5t-3.5 -53t-33.5 -26.5h-19q-80 0 -102.5 -21.5t-24.5 -95.5q0 -14 -1 -43t-1 -45v-389q0 -240 87 -372t310 -132q283 0 369 223q31 82 31 269v362q0 162 -28 201t-136 41l-14 6q-25 6 -28 54t32 48 q225 4 499 0q39 0 39 -51q0 -45 -37 -53q-109 -4 -138 -43t-29 -195v-368q0 -129 -6.5 -196.5t-47.5 -157t-123 -160.5q-94 -82 -188 -118t-242 -36q-408 0 -551 311q-31 70 -39 129.5t-8 208.5v518q0 74 -20.5 89.5t-128.5 15.5q-25 2 -35 52zM485 1587.5q0 59.5 42 100.5 t101.5 41t101.5 -42t42 -100q0 -59 -42 -100t-101.5 -41t-101.5 41t-42 100.5zM944 1587.5q0 57.5 43 99.5t102.5 42t100.5 -41t41 -100.5t-41 -100.5t-100.5 -41t-102.5 42t-43 99.5z" />
<glyph unicode="&#xdd;" horiz-adv-x="1490" d="M23 1257q-4 18 0 39q10 43 45 41q389 -6 540 0q23 0 37 -27.5t4 -54t-47 -26.5q-96 0 -96 -19q0 -14 4 -26q10 -25 47 -82l264 -397q2 -4 7.5 -3.5t9.5 5t8 10.5l217 360q55 94 55 121q0 18 -15.5 25.5t-72.5 7.5h-24q-10 4 -18.5 21.5t-10.5 37t11 33.5t40 14 q131 -8 436 0q41 0 41 -51q0 -53 -39 -55q-27 -2 -50 -8t-40.5 -12.5t-37 -24t-30 -26.5t-26.5 -33.5t-22.5 -34t-24.5 -40t-23 -38.5l-297 -494v-103.5v-123v-76.5q0 -57 30 -77.5t91 -22.5h16.5t15.5 1t16.5 -1t15.5 -6q20 -12 20 -64q0 -55 -45 -55q-393 6 -553 2 q-39 0 -53 26q-10 29 -2 60q8 20 22.5 29.5t25.5 9.5t34.5 -1t34.5 -1q45 2 63.5 26.5t22.5 75.5q8 143 2 275l-367 565q-70 111 -109.5 139.5t-123.5 30.5q-41 0 -49 28zM647 1499l98 330q20 39 58 39l178 2q29 0 42 -14t5 -41l-293 -355q-18 -23 -58 -11.5t-30 50.5z" />
<glyph unicode="&#xde;" horiz-adv-x="1206" d="M37 1290v19q0 41 41 41q358 -6 508 -2q51 4 51 -39v-23q0 -37 -23 -41q-6 -2 -18 -2q-98 0 -113 -20q-10 -16 -10 -97q0 -4 6 -10t13 -6q227 0 350 -31q135 -35 219 -135t84 -239q0 -197 -144.5 -309.5t-388.5 -112.5q-82 0 -125 6q-8 2 -11 -2.5t-3 -14.5v-51 q0 -74 25.5 -98.5t107.5 -24.5h4h12.5h14.5h16.5h14.5q43 -2 43 -39q2 -20 0 -32.5t-14.5 -23.5t-39.5 -11q-295 8 -544 -2q-39 0 -45 18q-4 8 -2 23v16t2 21q6 29 57 28q61 0 81.5 16.5t20.5 71.5v92v832q0 94 -10 119q-8 10 -31 12q-16 6 -63 5t-64 3q-23 4 -22 43z M473 422q0 -10 2 -16.5t4 -8.5l2 -2q37 -6 74 -6q147 0 237.5 90t90.5 238q0 191 -123 254q-102 53 -260 35q-27 0 -27 -15v-569z" />
<glyph unicode="&#xdf;" horiz-adv-x="1116" d="M29 41q0 18 1 27.5t11 19.5t31 10q70 6 78 17q10 14 10 90v78v505q0 236 20.5 333.5t87.5 183.5q115 152 320 151q162 0 274.5 -97t112.5 -243q0 -109 -57.5 -176.5t-167.5 -136.5q-14 -12 8 -21q131 -51 207.5 -153.5t76.5 -239.5q0 -193 -111.5 -308.5t-273.5 -115.5 q-53 0 -91 25.5t-38 72.5q0 37 23.5 64t58.5 27q29 0 78 -29q45 -18 47 -19q14 0 31.5 26t32 87.5t14.5 142.5q0 315 -190 357q-39 8 -101 8q-31 0 -47 14q-6 8 -6 50q0 20 7 25t34 9q125 16 190.5 88t65.5 187q0 113 -55.5 178t-145.5 65q-92 0 -141 -77q-53 -82 -53 -254 v-129v-600v-90q0 -63 11 -77t71 -14q23 -4 29.5 -6t13 -12t6.5 -31q0 -37 -2 -43q-18 -23 -39 -18q-213 8 -385 0q-29 -2 -38 12t-9 37z" />
<glyph unicode="&#xe0;" horiz-adv-x="862" d="M47 172q0 160 227 219q59 14 181 70q12 8 12 18l-2 125q-2 156 -113 156q-27 0 -59.5 -23.5t-32.5 -44.5q0 -29 10 -51q-16 -18 -67 -43t-70 -31q-74 -25 -74 49q0 78 134 183q111 84 200 84q68 0 134.5 -34t105.5 -87q25 -37 31 -67.5t6 -125.5v-356q0 -35 3 -51.5 t7 -20.5t12 -4q31 0 72 31q14 10 33 10q18 -2 27.5 -17.5t8 -31.5t-7.5 -31q-135 -123 -227 -122.5t-121 98.5v-2q-70 -55 -112.5 -76t-102.5 -21q-94 0 -154.5 54.5t-60.5 142.5zM205.5 1321.5q21.5 24.5 48.5 24.5l152 2q43 0 55 -29q66 -168 102 -330q0 -29 -19.5 -39 t-39 -5t-29.5 13q-106 143 -268 314q-23 25 -1.5 49.5zM242 197q0 -37 25.5 -61.5t64.5 -24.5q25 0 73 30.5t60 55.5v135q0 6 -4 12t-8 4q-39 -18 -117 -51q-94 -37 -94 -100z" />
<glyph unicode="&#xe1;" horiz-adv-x="862" d="M47 172q0 160 227 219q59 14 181 70q12 8 12 18l-2 125q-2 156 -113 156q-27 0 -59.5 -23.5t-32.5 -44.5q0 -29 10 -51q-16 -18 -67 -43t-70 -31q-74 -25 -74 49q0 78 134 183q111 84 200 84q68 0 134.5 -34t105.5 -87q25 -37 31 -67.5t6 -125.5v-356q0 -35 3 -51.5 t7 -20.5t12 -4q31 0 72 31q14 10 33 10q18 -2 27.5 -17.5t8 -31.5t-7.5 -31q-135 -123 -227 -122.5t-121 98.5v-2q-70 -55 -112.5 -76t-102.5 -21q-94 0 -154.5 54.5t-60.5 142.5zM242 197q0 -37 25.5 -61.5t64.5 -24.5q25 0 73 30.5t60 55.5v135q0 6 -4 12t-8 4 q-39 -18 -117 -51q-94 -37 -94 -100zM301 987l96 326q12 41 58 41h176q20 0 35.5 -10.5t13.5 -34.5l-2 -2q-4 -12 -6 -15l-285 -342q-16 -23 -57 -12.5t-29 49.5z" />
<glyph unicode="&#xe2;" horiz-adv-x="862" d="M47 172q0 160 227 219q59 14 181 70q12 8 12 18l-2 125q-2 156 -113 156q-27 0 -59.5 -23.5t-32.5 -44.5q0 -29 10 -51q-16 -18 -67 -43t-70 -31q-74 -25 -74 49q0 78 134 183q111 84 200 84q68 0 134.5 -34t105.5 -87q25 -37 31 -67.5t6 -125.5v-356q0 -35 3 -51.5 t7 -20.5t12 -4q31 0 72 31q14 10 33 10q18 -2 27.5 -17.5t8 -31.5t-7.5 -31q-135 -123 -227 -122.5t-121 98.5v-2q-70 -55 -112.5 -76t-102.5 -21q-94 0 -154.5 54.5t-60.5 142.5zM104 1001l181 297q12 16 39 29q12 2 62 3t73 -1q33 -2 49 -29l178 -290q19 -44 -16 -54 q-37 -10 -58 9l-221 186l-207 -186q-16 -12 -38.5 -11.5t-37 15t-4.5 32.5zM242 197q0 -37 25.5 -61.5t64.5 -24.5q25 0 73 30.5t60 55.5v135q0 6 -4 12t-8 4q-39 -18 -117 -51q-94 -37 -94 -100z" />
<glyph unicode="&#xe3;" horiz-adv-x="862" d="M47 172q0 160 227 219q59 14 181 70q12 8 12 18l-2 125q-2 156 -113 156q-27 0 -59.5 -23.5t-32.5 -44.5q0 -29 10 -51q-16 -18 -67 -43t-70 -31q-74 -25 -74 49q0 78 134 183q111 84 200 84q68 0 134.5 -34t105.5 -87q25 -37 31 -67.5t6 -125.5v-356q0 -35 3 -51.5 t7 -20.5t12 -4q31 0 72 31q14 10 33 10q18 -2 27.5 -17.5t8 -31.5t-7.5 -31q-135 -123 -227 -122.5t-121 98.5v-2q-70 -55 -112.5 -76t-102.5 -21q-94 0 -154.5 54.5t-60.5 142.5zM86 969q14 274 215 274q86 0 207 -78q72 -47 104 -47q25 0 36 20.5t12.5 45t13.5 46t41 23.5 q43 0 47 -28q4 -12 4 -27q0 -109 -60.5 -183.5t-156.5 -74.5q-86 0 -205 78q-80 53 -104 53q-18 0 -29.5 -13.5t-22.5 -56.5q0 -6 -4 -18t-4 -18q-12 -23 -49 -27t-45 31zM242 197q0 -37 25.5 -61.5t64.5 -24.5q25 0 73 30.5t60 55.5v135q0 6 -4 12t-8 4q-39 -18 -117 -51 q-94 -37 -94 -100z" />
<glyph unicode="&#xe4;" horiz-adv-x="862" d="M47 172q0 160 227 219q59 14 181 70q12 8 12 18l-2 125q-2 156 -113 156q-27 0 -59.5 -23.5t-32.5 -44.5q0 -29 10 -51q-16 -18 -67 -43t-70 -31q-74 -25 -74 49q0 78 134 183q111 84 200 84q68 0 134.5 -34t105.5 -87q25 -37 31 -67.5t6 -125.5v-356q0 -35 3 -51.5 t7 -20.5t12 -4q31 0 72 31q14 10 33 10q18 -2 27.5 -17.5t8 -31.5t-7.5 -31q-135 -123 -227 -122.5t-121 98.5v-2q-70 -55 -112.5 -76t-102.5 -21q-94 0 -154.5 54.5t-60.5 142.5zM129 1092q0 53 40 93t95 40t95 -40t40 -93q0 -57 -40 -96.5t-95 -39.5t-95 39t-40 97z M242 197q0 -37 25.5 -61.5t64.5 -24.5q25 0 73 30.5t60 55.5v135q0 6 -4 12t-8 4q-39 -18 -117 -51q-94 -37 -94 -100zM465 1092q0 53 40 93t95 40t95 -39t40 -94.5t-39 -95.5t-96 -40q-55 0 -95 39t-40 97z" />
<glyph unicode="&#xe5;" horiz-adv-x="862" d="M47 172q0 160 227 219q59 14 181 70q12 8 12 18l-2 125q-2 156 -113 156q-27 0 -59.5 -23.5t-32.5 -44.5q0 -29 10 -51q-16 -18 -67 -43t-70 -31q-74 -25 -74 49q0 78 134 183q111 84 200 84q68 0 134.5 -34t105.5 -87q25 -37 31 -67.5t6 -125.5v-356q0 -35 3 -51.5 t7 -20.5t12 -4q31 0 72 31q14 10 33 10q18 -2 27.5 -17.5t8 -31.5t-7.5 -31q-135 -123 -227 -122.5t-121 98.5v-2q-70 -55 -112.5 -76t-102.5 -21q-94 0 -154.5 54.5t-60.5 142.5zM188 1175.5q0 90.5 64.5 154t157.5 63.5q90 0 153.5 -63.5t63.5 -154t-63.5 -155 t-153.5 -64.5q-92 0 -157 64.5t-65 155zM242 197q0 -37 25.5 -61.5t64.5 -24.5q25 0 73 30.5t60 55.5v135q0 6 -4 12t-8 4q-39 -18 -117 -51q-94 -37 -94 -100zM322 1176q0 -37 25.5 -63t62.5 -26q35 0 59.5 26t24.5 63q0 35 -24.5 60.5t-59.5 25.5q-37 0 -62.5 -26 t-25.5 -60z" />
<glyph unicode="&#xe6;" horiz-adv-x="1339" d="M63 164q0 96 61.5 146t217.5 89q94 23 170 70v119q0 168 -121 168q-45 0 -74.5 -22.5t-29.5 -47.5q0 -6 1 -21.5t1 -21.5t-6.5 -16.5t-20.5 -16.5l-110 -49q-35 -18 -52.5 -7t-17.5 67q0 78 141 184q104 78 203 78q135 0 227 -99q6 -4 11 0q113 102 274 103 q127 0 196.5 -60.5t122.5 -183.5q10 -18 37 -45v-37q0 -29 -14 -37t-47 -8h-483q-35 0 -35 -22q0 -131 22 -199q23 -70 88.5 -116t139.5 -46q59 0 103 23.5t108 87.5q33 37 59 10l25 -21q31 -25 -3 -61q-186 -207 -368 -207q-176 0 -285 144q-10 10 -18 4q-66 -66 -148 -107 t-153 -41q-92 0 -157 56.5t-65 142.5zM266 190q0 -86 90 -86q70 0 156 80v115q0 25 -2 36t-12 5q-63 -27 -103 -39q-80 -27 -104.5 -49.5t-24.5 -61.5zM733 639q-4 -18 17 -18h276q18 0 14 14q-18 70 -58 106.5t-89 36.5q-117 0 -160 -139z" />
<glyph unicode="&#xe7;" horiz-adv-x="888" d="M51 391q0 207 147.5 350.5t356.5 143.5q100 0 179 -39t79 -109q0 -39 -26.5 -66.5t-65.5 -27.5q-59 0 -139 74q-51 51 -99 51q-88 0 -157.5 -98.5t-69.5 -235.5q0 -145 71.5 -234t180.5 -89q131 0 215 122q25 41 61 33q25 -14 33 -39q6 -20 -10 -47q-117 -180 -291 -213 l-31 -57q-2 -2 -6 -4q61 -14 103.5 -63.5t42.5 -114.5q0 -84 -64.5 -145.5t-150.5 -61.5q-49 0 -93 14q-16 6 -21 25.5t3 38.5l4 4q2 4 4 6q12 27 66 16q6 -2 16 -2q33 0 59.5 21.5t26.5 50.5q0 45 -43 52t-96 -36q-16 -16 -44 -0.5t-11 43.5l120 201q6 8 -2 8 q-154 12 -251 133t-97 295z" />
<glyph unicode="&#xe8;" horiz-adv-x="874" d="M43 418q0 199 123 333t309 134q215 0 305 -185q31 -66 56 -96q12 -25 2 -51.5t-47 -28.5q-147 -6 -523 0q-27 0 -26 -57q0 -145 77.5 -237.5t194.5 -92.5q129 0 231 119q20 25 50 16q23 -4 34 -27.5t-2 -45.5q-201 -229 -393 -230q-168 0 -279.5 131t-111.5 318z M252 1272q-20 29 0 51.5t45 22.5l152 2q45 0 57 -29q53 -147 100 -330q0 -39 -36 -44t-52 13q-113 147 -266 314zM266 637q6 -8 25 -8h276l25 2q-43 151 -162 151q-111 0 -164 -145z" />
<glyph unicode="&#xe9;" horiz-adv-x="874" d="M43 418q0 201 123 334t309 133q215 0 305 -185q37 -72 56 -96q12 -25 2 -51.5t-47 -28.5q-147 -6 -523 0q-27 0 -26 -57q0 -145 77.5 -237.5t194.5 -92.5q129 0 231 119q20 25 50 16q23 -4 34 -27.5t-2 -45.5q-201 -229 -393 -230q-168 0 -279.5 131t-111.5 318zM266 637 q6 -8 25 -8h276l25 2q-43 151 -162 151q-111 0 -164 -145zM344 987l98 326q12 41 56 41h176q23 0 38 -9.5t11 -31.5q0 -15 -8 -21l-285 -342q-16 -23 -56 -12.5t-30 49.5z" />
<glyph unicode="&#xea;" horiz-adv-x="874" d="M43 418q0 199 123 333t309 134q215 0 305 -185q33 -70 56 -96q12 -25 2 -51.5t-47 -28.5q-147 -6 -523 0q-27 0 -26 -57q0 -145 77.5 -237.5t194.5 -92.5q129 0 231 119q20 25 50 16q23 -4 34 -27.5t-2 -45.5q-201 -229 -393 -230q-168 0 -279.5 131t-111.5 318z M184 1001l181 297q12 16 38 29q12 2 62.5 3t73.5 -1q33 -2 49 -29l178 -290q19 -44 -16 -54q-37 -10 -58 9l-221 186l-207 -186q-16 -12 -38.5 -11.5t-37 15t-4.5 32.5zM266 635q6 -8 25 -6h276l25 2q-43 151 -162 151q-111 0 -164 -147z" />
<glyph unicode="&#xeb;" horiz-adv-x="874" d="M43 418q0 199 123 333t309 134q215 0 305 -187q35 -72 56 -94q23 -78 -45 -80q-147 -6 -523 0q-27 0 -26 -57q0 -145 77.5 -237.5t194.5 -92.5q129 0 231 119q20 25 50 16q23 -4 34 -27.5t-2 -45.5q-201 -229 -393 -230q-168 0 -279.5 130t-111.5 319zM172 1092 q0 53 40 93t97 40q55 0 95 -40t40 -93q0 -57 -40 -96.5t-95 -39.5q-57 0 -97 39t-40 97zM266 635q6 -8 25 -6h276l25 2q-43 151 -162 151q-111 0 -164 -147zM508 1092q0 53 40 93t95 40q57 0 96 -39t39 -94.5t-39 -95.5t-96 -40q-55 0 -95 39t-40 97z" />
<glyph unicode="&#xec;" horiz-adv-x="559" d="M39 45q-4 55 35 57q96 8 110 31q8 14 9 45v23.5v34v32.5v357q0 70 -5 77q-2 2 -8 4.5t-13 4.5t-9 2q-43 8 -82 22q-25 10 -24 43t20 45q111 43 241 86q78 25 78 -69v-572q0 -74 2 -102q2 -43 13.5 -50t60.5 -7q51 4 57 -41v-37q0 -41 -51 -37q-96 6 -395 0 q-14 0 -25.5 16.5t-13.5 34.5zM62.5 1323.5q19.5 22.5 43.5 22.5l148 2q39 0 55 -27q57 -154 97 -317q0 -39 -37 -42t-47 13q-74 98 -259 301q-20 25 -0.5 47.5z" />
<glyph unicode="&#xed;" horiz-adv-x="559" d="M39 45q-4 55 35 57q96 8 110 31q8 14 9 45v23.5v34v32.5v357q0 70 -5 77q-2 2 -8 4.5t-13 4.5t-9 2q-43 8 -82 22q-25 10 -24 43t20 45q111 43 241 86q78 25 78 -69v-572q0 -74 2 -102q2 -43 13.5 -50t60.5 -7q51 4 57 -41v-37q0 -41 -51 -37q-96 6 -395 0 q-14 0 -25.5 16.5t-13.5 34.5zM160 1022l94 313q12 39 55 39h172q18 0 33.5 -8t13.5 -31q0 -12 -8 -20l-276 -330q-14 -23 -54 -12.5t-30 49.5z" />
<glyph unicode="&#xee;" horiz-adv-x="559" d="M2 1083l180 297q12 16 39 29q12 2 62.5 3t72.5 -1q33 -2 50 -29l178 -290q18 -44 -17 -54q-37 -10 -57 9l-221 186l-207 -186q-16 -12 -39 -11.5t-37 15t-4 32.5zM39 45q-4 55 35 57q96 8 110 31q8 14 9 45v23.5v34v32.5v357q0 70 -5 77q-2 2 -8 4.5t-13 4.5t-9 2 q-43 8 -82 22q-25 10 -24 43t20 45q129 49 241 84q78 25 78 -67v-572q0 -74 2 -102q2 -43 13.5 -50t60.5 -7q51 4 57 -41q0 -2 -1 -17.5t-1 -19.5h2q0 -41 -51 -37q-96 6 -395 0q-14 0 -25.5 16.5t-13.5 34.5z" />
<glyph unicode="&#xef;" horiz-adv-x="559" d="M-35 1161q0 53 41 92t98 39q59 0 100.5 -37.5t41.5 -93t-42 -93.5t-99.5 -38t-98.5 38t-41 93zM39 43q-2 20 6 38.5t29 20.5q96 8 110 31q8 14 9 45v23.5v34v32.5v355q0 72 -5 79q-2 2 -8 4.5t-13 4.5t-9 2q-43 8 -82 22q-25 10 -24 43t20 45q174 61 241 84q78 25 78 -67 v-572q0 -74 2 -102q2 -43 13.5 -50t60.5 -7q51 4 57 -41v-37q0 -41 -51 -37q-96 6 -395 0q-14 0 -25.5 16.5t-13.5 32.5zM315 1161.5q0 55.5 42 93t99.5 37.5t98.5 -39t41 -92t-41 -92t-98.5 -39t-99.5 38t-42 93.5z" />
<glyph unicode="&#xf0;" horiz-adv-x="1116" d="M84 436q0 199 136 335t335 136q70 0 129 -20l8 -2q0 14 -47 90q-43 61 -108 121q-23 23 -56 6l-256 -133q-39 -12 -59 26q-23 49 22 74l220 115q8 4 0 8q-58 34 -132 59q-18 6 -33.5 24.5t-0.5 41.5l14 26q27 43 76 31q158 -47 250 -98l180 88q51 14 72 -23 q29 -49 -78 -102q-4 -2 -6 -2q-47 -20 -52 -23q-14 -10 0 -18q61 -45 122 -118.5t102 -145.5q119 -209 118 -440q0 -274 -153 -408q-135 -119 -322 -119q-211 0 -346 133t-135 338zM299 504q0 -182 86 -304t205 -122q100 0 166.5 81t66.5 212q0 184 -86 303t-209 119 q-94 0 -161.5 -82t-67.5 -207z" />
<glyph unicode="&#xf1;" horiz-adv-x="1062" d="M33 45q0 25 2 33q14 20 35 20h10q59 0 76.5 29t17.5 154v268q0 131 -6 149q-6 8 -64 19l-41 8q-31 8 -26.5 47t24.5 47q84 27 177 64q47 16 63 20q39 8 55.5 -4t16.5 -49v-86q0 -14 2 -16.5t12 4.5q188 127 293 127q244 0 244 -373q0 -59 -8.5 -177t-8.5 -177 q0 -33 12.5 -41.5t61.5 -8.5q33 10 55 -14q10 -12 8 -45t-22 -43q-8 -4 -31 -4q-49 0 -187 1t-192 -1q-31 -2 -40 7t-11 36q0 63 35 63h12q59 4 78 21.5t25 69.5q12 113 12 342q0 197 -125 196q-80 0 -225 -104v-432q0 -66 15 -79.5t85 -13.5q31 0 37 -36q0 -41 -6 -54 q-6 -14 -41 -18q-59 2 -195.5 0t-195.5 2q-29 2 -35 16q-4 8 -4 33zM182 1028q6 135 60.5 212t156.5 77q86 0 209 -82q74 -51 107 -51q25 0 35 21.5t11 48t15.5 49t42.5 24.5q43 0 45 -29q4 -14 4 -30q0 -113 -60.5 -190t-158.5 -77q-88 0 -205 82q-78 53 -106 54 q-18 0 -29.5 -13.5t-23.5 -62.5q0 -6 -3 -18.5t-3 -20.5q-12 -23 -50.5 -28t-46.5 34z" />
<glyph unicode="&#xf2;" horiz-adv-x="1024" d="M41 430q0 199 135 332t336 133q203 0 341 -134t136 -333q-2 -193 -138 -326t-333 -133q-203 0 -340 132t-137 329zM258 496q0 -176 85 -294t200 -118q94 0 159.5 83t65.5 214q0 166 -86 283.5t-199 117.5q-94 0 -159.5 -80.5t-65.5 -205.5zM327.5 1341.5 q22.5 24.5 45.5 24.5l155 2q39 0 58 -27q53 -141 98 -329q4 -41 -34 -46t-52 13q-129 166 -270 313q-23 25 -0.5 49.5z" />
<glyph unicode="&#xf3;" horiz-adv-x="1024" d="M41 432q0 199 135 331t336 132q203 0 341 -133t136 -332q-2 -195 -137 -328t-334 -133q-203 0 -340 132t-137 331zM258 496q0 -176 85 -294t200 -118q94 0 159.5 83t65.5 214q0 166 -86 283.5t-199 117.5q-94 0 -159.5 -80.5t-65.5 -205.5zM428 1028l98 328q20 39 56 39 h178q23 0 38 -10.5t11 -30.5q0 -2 -2 -6v-5v-2l-291 -352q-20 -20 -59 -10t-29 49z" />
<glyph unicode="&#xf4;" horiz-adv-x="1024" d="M41 428q0 199 134 329t337 130t341 -132t136 -329q-2 -193 -137 -325t-334 -132q-203 0 -340 132t-137 327zM223 1020l180 297q12 16 39 29q12 2 62.5 3t73.5 -1q33 -2 49 -29l178 -291q20 -45 -17 -53q-37 -10 -57 8l-221 186l-207 -186q-16 -12 -38.5 -11t-37 15 t-4.5 33zM258 489q0 -172 85 -288.5t200 -116.5q94 0 159.5 82t65.5 213q0 164 -86 279.5t-199 115.5q-94 0 -159.5 -80t-65.5 -205z" />
<glyph unicode="&#xf5;" horiz-adv-x="1024" d="M41 428q0 197 135 328t336 131q203 0 341 -133t136 -328q-2 -193 -137 -325t-334 -132q-203 0 -340 132t-137 327zM188 991q14 274 215 275q86 0 207 -78q72 -47 105 -47q25 0 36 20.5t12 45t13 46t41 23.5q43 0 47 -27q4 -14 4 -28q0 -109 -60.5 -183.5t-156.5 -74.5 q-86 0 -205 77q-80 53 -104 54q-18 0 -29.5 -13.5t-21.5 -56.5q0 -6 -4 -18.5t-4 -18.5q-12 -23 -49 -27t-46 31zM258 489q0 -172 85 -288.5t200 -116.5q94 0 159.5 81t65.5 212q0 166 -86 281.5t-199 115.5q-94 0 -159.5 -80t-65.5 -205z" />
<glyph unicode="&#xf6;" horiz-adv-x="1024" d="M41 430q0 199 135 331t336 132q203 0 341 -134t136 -331q-2 -195 -137 -327t-334 -132q-203 0 -340 132t-137 329zM215 1092q0 53 40 93t95.5 40t95 -40t39.5 -93q0 -57 -39.5 -96.5t-95 -39.5t-95.5 39t-40 97zM258 494q0 -174 85 -292t200 -118q94 0 159.5 83t65.5 214 q0 164 -86 280.5t-199 116.5q-94 0 -159.5 -80t-65.5 -204zM551 1092q0 53 40 93t95 40q57 0 97 -39t40 -94.5t-40 -95.5t-97 -40q-55 0 -95 39t-40 97z" />
<glyph unicode="&#xf7;" horiz-adv-x="1431" d="M141 651v70q0 57 70 57h1026h23.5t14.5 -3t9 -5t3 -11t2 -18.5t0 -30t3 -40.5q2 -37 -12 -49.5t-49 -12.5h-1018q-72 0 -72 43zM608 283q0 45 32 74.5t77 29.5t75.5 -29.5t30.5 -74.5q0 -43 -30.5 -74t-75.5 -31q-43 0 -76 31t-33 74zM608 1116q2 41 35 68.5t74 27.5 q43 0 74.5 -29.5t31.5 -72.5t-31.5 -73.5t-74.5 -30.5q-45 0 -77 32.5t-32 77.5z" />
<glyph unicode="&#xf8;" horiz-adv-x="1116" d="M82 420q0 201 138 334t343 133q137 0 256 -70q16 -8 23 0l4 4l84 94q25 31 53 3q8 -8 27 -29q16 -20 -9 -49q-6 -6 -10 -11q-27 -29 -65 -75q-10 -13 4 -27q115 -131 114 -303q0 -197 -137 -329t-338 -132q-147 0 -272 78q-2 0 -4 -2l-109 -133q-33 -29 -61 0l-21 16 q-27 20 4 60q61 72 97 108q12 14 0 27q-121 127 -121 303zM307 483q0 -113 37 -200q10 -16 23 -4l344 389q8 12 -2 22q-78 84 -174.5 84t-162 -81t-65.5 -210zM418 178q-6 -10 4 -20q74 -80 170 -80t163.5 83t67.5 214q0 100 -41 190q-6 20 -16 8z" />
<glyph unicode="&#xf9;" horiz-adv-x="1093" d="M44 780.5q-7 18.5 0 40t34 27.5q25 6 110.5 30.5t126.5 32.5q29 6 43.5 -12t14.5 -39v-481q0 -152 30.5 -197t118.5 -45q82 0 203 92q0 2 2 7.5t3 9.5t1 8v336v45q0 102 -49 113q-20 4 -58 10t-57 8q-23 12 -22.5 48t28.5 42q227 49 295 57q63 4 64 -51v-626v-62 q0 -18 11 -24.5t19.5 -4.5t28.5 7q6 2 20.5 6t20.5 6q27 4 39 -19.5t5 -51t-29 -32.5q-117 -50 -230 -73q-82 -18 -84 47q0 2 -1 12t-2 28.5t-1 28.5q0 18 -18 5q-59 -41 -92 -62.5t-91.5 -44t-111.5 -22.5q-125 0 -186.5 77.5t-61.5 212.5v416q0 27 -5 36t-24 15 q-14 4 -40.5 11.5t-39.5 11.5q-8 2 -15 20.5zM330.5 1382.5q21.5 24.5 46.5 24.5l153 2q41 0 58 -27q59 -156 100 -329q2 -41 -36 -46t-50 13q-98 129 -270 313q-23 25 -1.5 49.5z" />
<glyph unicode="&#xfa;" horiz-adv-x="1093" d="M44 780.5q-7 18.5 0 40t34 27.5q25 6 110.5 30.5t126.5 32.5q29 6 43.5 -12t14.5 -39v-481q0 -152 30.5 -197t118.5 -45q82 0 203 92q0 2 2 7.5t3 9.5t1 8v336v45q0 102 -49 113q-20 4 -58 10t-57 8q-23 12 -22.5 48t28.5 42q227 49 295 57q63 4 64 -51v-626v-62 q0 -18 11 -24.5t19.5 -4.5t28.5 7q6 2 20.5 6t20.5 6q27 4 39 -19.5t5 -51t-29 -32.5q-117 -50 -230 -73q-82 -18 -84 47q0 2 -1 12t-2 28.5t-1 28.5q0 18 -18 5q-59 -41 -92 -62.5t-91.5 -44t-111.5 -22.5q-125 0 -186.5 77.5t-61.5 212.5v416q0 27 -5 36t-24 15 q-14 4 -40.5 11.5t-39.5 11.5q-8 2 -15 20.5zM424 1049l98 327q20 39 58 39h178q23 0 38 -10t11 -31v-6l-2 -4v-2l-293 -350q-18 -23 -59 -12.5t-29 49.5z" />
<glyph unicode="&#xfb;" horiz-adv-x="1093" d="M44 780.5q-7 18.5 0 40t34 27.5q25 6 110.5 30.5t126.5 32.5q29 6 43.5 -12t14.5 -39v-481q0 -152 30.5 -197t118.5 -45q82 0 203 92q0 2 2 7.5t3 9.5t1 8v336v45q0 102 -49 113q-20 4 -58 10t-57 8q-23 12 -22.5 48t28.5 42q227 49 295 57q63 4 64 -51v-626v-62 q0 -18 11 -24.5t19.5 -4.5t28.5 7q6 2 20.5 6t20.5 6q27 4 39 -19.5t5 -51t-29 -32.5q-117 -50 -230 -73q-82 -18 -84 47q0 2 -1 12t-2 28.5t-1 28.5q0 18 -18 5q-59 -41 -92 -62.5t-91.5 -44t-111.5 -22.5q-125 0 -186.5 77.5t-61.5 212.5v416q0 27 -5 36t-24 15 q-14 4 -40.5 11.5t-39.5 11.5q-8 2 -15 20.5zM236 1061l180 297q12 16 39 28q12 2 62 3.5t73 -0.5q33 -2 49 -29l178 -291q21 -45 -16 -53q-37 -10 -58 8l-221 186l-207 -186q-16 -12 -38.5 -11t-37 15t-3.5 33z" />
<glyph unicode="&#xfc;" horiz-adv-x="1093" d="M44 780.5q-7 18.5 0 40t34 27.5q25 6 110.5 30.5t126.5 32.5q29 6 43.5 -12t14.5 -39v-481q0 -152 30.5 -197t118.5 -45q82 0 203 92q0 2 2 7.5t3 9.5t1 8v336v45q0 102 -49 113q-20 4 -58 10t-57 8q-23 12 -22.5 48t28.5 42q227 49 295 57q63 4 64 -51v-626v-62 q0 -18 11 -24.5t19.5 -4.5t28.5 7q6 2 20.5 6t20.5 6q27 4 39 -19.5t5 -51t-29 -32.5q-117 -50 -230 -73q-82 -18 -84 47q0 2 -1 12t-2 28.5t-1 28.5q0 18 -18 5q-59 -41 -92 -62.5t-91.5 -44t-111.5 -22.5q-125 0 -186.5 77.5t-61.5 212.5v416q0 27 -5 36t-24 15 q-14 4 -40.5 11.5t-39.5 11.5q-8 2 -15 20.5zM256 1153q0 53 40 93t95 40q57 0 97 -40t40 -93q0 -57 -40 -96t-97 -39q-55 0 -95 39t-40 96zM592 1153q0 53 40 93t97 40t96 -39t39 -94t-39 -95t-96 -40t-97 39t-40 96z" />
<glyph unicode="&#xfd;" horiz-adv-x="1003" d="M19.5 786.5q-9.5 24.5 1 48t42.5 23.5h25h338q35 0 45 -23.5t1 -49t-28 -29.5q-43 0 -61 -6q-35 -10 2 -82q27 -61 53.5 -127t58 -150t50.5 -129q8 -20 22 17l101 272q47 121 47 156q0 29 -17.5 39t-83.5 10q-20 10 -23 51t30 49h20q61 0 154.5 1t146.5 1q35 0 45 -30.5 t-2 -53.5q-6 -14 -29 -18q-51 -4 -84.5 -47t-91.5 -197l-243 -664q-49 -133 -86 -213q-31 -70 -74 -127q-43 -49 -117 -49q-45 0 -82 36t-37 81q0 70 119 105q25 6 45.5 15t35.5 25.5t27.5 26.5t22.5 36t16.5 36t13.5 43t8 40t8 45t7 42l-243 592q-51 125 -72.5 147.5 t-85.5 28.5q-16 4 -25.5 28.5zM385 1047l98 329q20 39 58 39h178q23 0 38 -11t11 -32q-2 -2 -2 -8l-2 -2l-291 -354q-18 -23 -59 -11.5t-29 50.5z" />
<glyph unicode="&#xfe;" horiz-adv-x="1071" d="M4 -463q2 33 10.5 45t42.5 15q33 0 55.5 9t34 19t16.5 34t5 37t-1 46t-1 45v1307v53q0 25 -6 32t-31 13q-10 2 -27.5 7t-26.5 8t-19.5 10.5t-14.5 17.5t-4 41q-2 20 16 33l13 6l219 135q35 23 60.5 10.5t25.5 -61.5v-570q0 -39 6 -38q4 0 10 4q176 119 272 118 q139 0 240.5 -129t101.5 -297q0 -201 -141 -350t-334 -149q-72 0 -141 22q-6 2 -10 -3t-4 -15v-205q0 -131 19.5 -164t88.5 -29q53 4 68.5 -6t17.5 -61q2 -25 -11 -34t-42 -9q-319 6 -459 0q-29 -2 -40 12.5t-9 40.5zM371 213q106 -96 213 -96q88 0 150.5 81t62.5 212 q0 145 -71 240t-169 95q-86 0 -186 -86v-446z" />
<glyph unicode="&#xff;" horiz-adv-x="1011" d="M19.5 786.5q-9.5 24.5 1 48t42.5 23.5h25h338q35 0 45 -23.5t1 -49t-28 -29.5q-43 0 -61 -6q-35 -10 2 -82q27 -61 53.5 -127t58 -150t50.5 -129q8 -20 22 17l101 272q47 121 47 156q0 29 -17.5 39t-83.5 10q-20 10 -23 51t30 49h20q61 0 154.5 1t146.5 1q35 0 45 -30.5 t-2 -53.5q-6 -14 -29 -18q-51 -4 -84.5 -47t-91.5 -197l-243 -664q-49 -133 -86 -213q-31 -70 -74 -127q-43 -49 -117 -49q-45 0 -82 36t-37 81q0 70 119 105q25 6 45.5 15t35.5 25.5t27.5 26.5t22.5 36t16.5 36t13.5 43t8 40t8 45t7 42l-243 592q-51 125 -72.5 147.5 t-85.5 28.5q-16 4 -25.5 28.5zM207 1143q0 57 42 99t101.5 42t100.5 -42t41 -99q0 -59 -41 -100.5t-100.5 -41.5t-101.5 41t-42 101zM563 1142.5q0 57.5 42 99.5t100 42q59 0 101 -41t42 -100.5t-42 -100.5t-101 -41q-57 0 -99.5 42t-42.5 99.5z" />
<glyph unicode="&#x152;" horiz-adv-x="2121" d="M100 657q0 203 111 375t293 258q145 70 352 70q76 0 227 -8q100 -6 113 -6q6 0 39 1t72 1h581q31 0 45.5 -11.5t16.5 -42.5q4 -23 8 -127t2 -147q0 -18 -35 -19h-37q-18 2 -28 37l-11 39q-23 94 -43 112.5t-96 18.5h-324q-43 0 -43 -22v-402q0 -23 37 -22h236 q92 0 115 18q16 18 28 103q0 6 3 15t13.5 17.5t24.5 8.5h29q20 0 26.5 -9.5t10.5 -31.5q-2 -51 -1 -190.5t1 -180.5q0 -51 -29 -51h-37q-41 0 -41 47q-8 78 -28.5 96.5t-96.5 18.5h-272q-18 0 -19 -50v-409q0 -10 11.5 -21.5t23.5 -11.5h289q115 0 148.5 8t60.5 41 q55 66 66 146q4 35 43 34h22q37 0 37 -53q-2 -72 -29 -260q-4 -27 -19.5 -39t-28.5 -14t-38 -2q-121 0 -356.5 1t-358.5 1q-70 0 -205 -9.5t-202 -9.5q-291 0 -499 199t-208 483zM367 698q0 -260 139 -432t340 -172q102 0 174 53q47 37 60.5 90.5t13.5 231.5v563 q0 111 -62.5 163t-202.5 52q-217 0 -339.5 -143t-122.5 -406z" />
<glyph unicode="&#x153;" horiz-adv-x="1587" d="M86 420q0 190 140.5 326.5t338.5 136.5q190 0 301 -129q0 -4 6 6q123 123 297 123q231 0 314 -203q20 -51 57 -84v-39q0 -41 -47 -41h-481q-37 0 -37 -22q4 -162 77.5 -267.5t170.5 -105.5q80 0 219 131q31 31 55 0q25 -25 27 -31q8 -20 -15 -43q-76 -86 -174 -149 q-102 -63 -205 -64q-149 0 -243 129q-121 -129 -318 -129q-205 0 -344 130t-139 325zM307 477q0 -162 87 -278.5t194 -116.5q86 0 138 73.5t52 217.5q0 182 -73 290.5t-177 108.5q-90 0 -155.5 -83t-65.5 -212zM991 639q-4 -18 19 -18h250q20 0 20 4q-8 74 -48 116.5 t-93 42.5q-113 0 -148 -145z" />
<glyph unicode="&#x178;" horiz-adv-x="1490" d="M23 1253q-4 16 0 37q10 47 45 41q389 -6 540 0q23 0 37 -26.5t4 -54t-47 -27.5q-59 0 -74 -2q-31 -6 -18 -41q10 -25 47 -82l254 -383q6 -10 7 -12.5t6 -5.5t10.5 2.5t11.5 15.5l217 358q55 92 55 121q0 18 -15.5 24.5t-72.5 6.5h-24q-14 6 -23.5 32.5t0.5 51t45 22.5 q172 -6 436 0q41 0 41 -51q0 -53 -39 -53q-31 -2 -56.5 -8.5t-48 -21.5t-35.5 -24.5t-33.5 -37t-26.5 -36.5t-27.5 -46t-26.5 -43l-297 -494v-299q0 -57 30 -77.5t91 -24.5q53 0 64 -6q20 -10 20 -62q0 -55 -45 -55q-393 6 -553 2q-39 0 -53 26q-10 29 -2 60q8 20 22.5 29.5 t25.5 9.5t34.5 -1t34.5 -1q45 2 63.5 26.5t22.5 75.5q8 141 2 273l-367 563q-70 109 -109.5 137.5t-123.5 32.5q-41 0 -49 28zM483 1587q0 57 42 99.5t101.5 42.5t101.5 -41t42 -100.5t-42 -100.5t-101.5 -41t-101.5 41t-42 100zM842 1587.5q0 59.5 42 100.5t101 41t100 -41 t41 -100.5t-41 -100.5t-100 -41t-101 41t-42 100.5z" />
<glyph unicode="&#x2c6;" horiz-adv-x="714" d="M59 1012l177 284q10 16 38 29q14 2 74 3t82 -1q33 -2 49 -29l174 -278q19 -41 -16 -51q-35 -8 -57 8l-228 178l-213 -178q-29 -25 -67 -2q-27 14 -13 37z" />
<glyph unicode="&#x2dc;" horiz-adv-x="714" d="M18 983q14 262 215 262q80 0 207 -76q72 -45 105 -45q25 0 36 19.5t12 43t13 44t41 22.5q43 0 47 -26q4 -12 4 -27q0 -102 -60.5 -173t-156.5 -71q-86 0 -205 72q-84 53 -104 53q-18 0 -29.5 -12t-21.5 -55q0 -6 -3 -17.5t-5 -17.5q-4 -27 -46 -30t-49 34z" />
<glyph unicode="&#x2000;" horiz-adv-x="960" />
<glyph unicode="&#x2001;" horiz-adv-x="1921" />
<glyph unicode="&#x2002;" horiz-adv-x="960" />
<glyph unicode="&#x2003;" horiz-adv-x="1921" />
<glyph unicode="&#x2004;" horiz-adv-x="640" />
<glyph unicode="&#x2005;" horiz-adv-x="480" />
<glyph unicode="&#x2006;" horiz-adv-x="320" />
<glyph unicode="&#x2007;" horiz-adv-x="320" />
<glyph unicode="&#x2008;" horiz-adv-x="240" />
<glyph unicode="&#x2009;" horiz-adv-x="384" />
<glyph unicode="&#x200a;" horiz-adv-x="106" />
<glyph unicode="&#x2010;" horiz-adv-x="890" d="M82 446v58q0 23 20.5 33t38.5 10h629q20 0 35.5 -13.5t13.5 -29.5l-4 -53q-8 -33 -41 -37q-309 -4 -651 0q-29 0 -41 32z" />
<glyph unicode="&#x2011;" horiz-adv-x="890" d="M82 446v58q0 23 20.5 33t38.5 10h629q20 0 35.5 -13.5t13.5 -29.5l-4 -53q-8 -33 -41 -37q-309 -4 -651 0q-29 0 -41 32z" />
<glyph unicode="&#x2012;" horiz-adv-x="890" d="M82 446v58q0 23 20.5 33t38.5 10h629q20 0 35.5 -13.5t13.5 -29.5l-4 -53q-8 -33 -41 -37q-309 -4 -651 0q-29 0 -41 32z" />
<glyph unicode="&#x2013;" horiz-adv-x="1249" d="M74 471v22.5t2 22.5q4 35 37 39q504 -4 1026 0q41 0 41 -37v-55q-6 -29 -47 -29q-512 4 -1022 0q-16 0 -26.5 11.5t-10.5 25.5z" />
<glyph unicode="&#x2014;" horiz-adv-x="1751" d="M166 446q2 16 2 58q4 35 57 35q639 -4 1297 0q39 -8 45 -21q8 -16 2 -86q-14 -20 -49 -20q-391 -4 -1301 0q-53 0 -53 34z" />
<glyph unicode="&#x2018;" horiz-adv-x="557" d="M135 1116q0 98 66.5 180t173.5 121q20 8 38.5 -5t17.5 -37.5t-25 -43.5q-131 -74 -132 -164q0 -8 21 -2q6 2 20 2q49 0 80 -33.5t31 -82.5q0 -53 -38 -89t-91 -36q-72 0 -117 56t-45 134z" />
<glyph unicode="&#x2019;" horiz-adv-x="557" d="M135 1296q0 53 38 89t93 36q72 0 115 -53t43 -133q0 -90 -56.5 -169t-150.5 -124q-57 -27 -78 16q-14 37 17 58q133 80 133 162v8v2q-29 -8 -43 -8q-49 0 -80 33.5t-31 82.5z" />
<glyph unicode="&#x201a;" horiz-adv-x="526" d="M127 49q0 49 37 83t88 34q68 0 108.5 -52.5t40.5 -125.5q0 -92 -59 -170t-158 -117q-37 -14 -49 33q-4 33 12 41l9 6q111 66 114 158q1 6 -22 0h-17q-45 0 -74.5 31.5t-29.5 78.5z" />
<glyph unicode="&#x201c;" horiz-adv-x="1028" d="M154 1110q0 94 64.5 176t170.5 123q29 12 51.5 -3t21.5 -37.5t-20 -37.5q-139 -78 -139 -164q0 -4 12 -4q25 4 33 4q49 0 83 -33.5t34 -82.5q0 -53 -41 -89t-96 -36q-76 0 -125 53t-49 131zM600 1110q0 94 64.5 176t171.5 123q45 16 65 -6q10 -14 10 -37t-22 -35 q-139 -74 -139 -164q0 -6 12 -6q4 0 15 3t18 3q51 0 83.5 -33.5t32.5 -82.5q0 -53 -40 -89t-97 -36q-76 0 -125 54t-49 130z" />
<glyph unicode="&#x201d;" horiz-adv-x="1026" d="M168 1296q0 51 37 86t88 35q68 0 108.5 -53t40.5 -127q0 -92 -59 -171t-158 -118q-37 -12 -49 33q-4 35 12 41l9 6q111 68 114 158q1 6 -22 0h-17q-45 0 -74.5 32.5t-29.5 77.5zM608 1290q0 51 37 86t88 35q68 0 109 -54t41 -128q0 -92 -59.5 -170t-157.5 -117 q-37 -14 -50 33q-4 33 13 41l8 6q111 66 115 158q0 6 -23 0h-16q-45 0 -75 31.5t-30 78.5z" />
<glyph unicode="&#x201e;" horiz-adv-x="968" d="M147 49q0 49 37 83t88 34q68 0 109 -52.5t41 -125.5q0 -92 -59.5 -170t-157.5 -117q-37 -14 -49 33q-4 33 12 41l8 6q111 66 115 158q0 6 -23 0h-16q-45 0 -75 31.5t-30 78.5zM569 49q0 49 37 83t88 34q68 0 110 -52.5t42 -125.5q0 -92 -60.5 -170t-158.5 -117 q-33 -14 -49 33q-4 31 12 41l10 6q111 66 113 158q0 6 -23 0h-14q-45 0 -76 31.5t-31 78.5z" />
<glyph unicode="&#x2022;" horiz-adv-x="759" d="M143 671.5q0 96.5 69 164t169 67.5t168.5 -67.5t68.5 -164t-68.5 -164t-168.5 -67.5t-169 67.5t-69 164z" />
<glyph unicode="&#x2026;" horiz-adv-x="2215" d="M256 86q0 53 39 87t98.5 34t95 -37t35.5 -90q0 -49 -36 -82t-95 -33q-61 0 -99 34t-38 87zM987 78q0 55 37 91t96.5 36t97 -37t37.5 -90q0 -51 -37 -82t-96 -31q-61 0 -98 31t-37 82zM1712 86q0 53 35 87t94.5 34t96 -37t36.5 -90q0 -51 -35 -83t-96 -32q-59 0 -95 35 t-36 86z" />
<glyph unicode="&#x202f;" horiz-adv-x="384" />
<glyph unicode="&#x2039;" horiz-adv-x="1802" d="M44 16.5q-11 26.5 0 54t42 29.5h20q70 0 86.5 16.5t16.5 88.5v481q0 4 -5 9t-7 5h-88q-49 0 -62 29q-10 39 4 66q4 12 35 18q88 18 125 39q8 102 12 139t23.5 97.5t55.5 102.5t101 101q72 66 174.5 109t221.5 42t200 -67q29 -33 56 -14q78 55 168 88t192.5 26.5 t173.5 -67.5q41 -31 41 -80q0 -31 -48 -70.5t-81 -39.5q-27 0 -55.5 27.5t-71.5 55t-106 27.5q-76 0 -142.5 -55t-85.5 -133q-12 -53 -12 -236q0 -27 14 -31q92 -8 351 3q86 2 172 32q27 8 46 -17.5t19 -51.5v-643q0 -63 13.5 -78t64.5 -15q43 8 55.5 -18.5t2 -58 t-24.5 -35.5q-193 6 -428 0q-16 0 -26.5 17.5t-10.5 35.5q0 16 2 28.5t15.5 22.5t37.5 8q57 0 72.5 11.5t17.5 62.5v105v307q0 68 -18.5 98.5t-73.5 32.5q-2 0 -132 2t-146 0q-16 -4 -21 -21l-2 -419q0 -125 12 -148q14 -31 90 -31h39q25 0 37.5 -10t14.5 -20.5t2 -28.5 t-10.5 -35.5t-22.5 -17.5q-242 4 -483 -2q-39 0 -39 51q0 45 34 59h19q70 0 81 22.5t11 156.5v399q-4 31 -16 33q-70 4 -192 4t-167 -6q-10 0 -12 -25q0 -51 -1 -151.5t-1 -184.5t2 -155q2 -57 17.5 -72t78.5 -15q45 0 68 -4q37 -14 29.5 -64t-37.5 -48q-256 10 -502 0 q-25 0 -36 26.5zM426 887q0 -6 6 -15.5t12 -9.5q164 -10 353 4q20 0 20 80q6 154 57 246q0 6 -8 16q-8 12 -20 21q-74 66 -182 65q-76 0 -141.5 -54t-84.5 -132q-12 -57 -12 -221z" />
<glyph unicode="&#x203a;" horiz-adv-x="1761" d="M43 22.5q-8 34.5 8 59.5q6 12 27 16q12 4 33.5 4h27.5q43 2 57.5 18.5t14.5 84.5v471q0 4 -10.5 14t-14.5 10h-73q-49 0 -64 29q-4 45 6 66q4 6 33 18q84 16 123 41q14 172 35 238q33 88 160 200q74 66 173 110t213.5 43t194.5 -69q25 -20 27 -18q119 100 264 100 q20 0 63 -5t66 -5q43 0 80 43q29 14 63.5 6t34.5 -37v-1265q0 -8 -1 -26.5t0 -26t4 -18.5t13.5 -15.5t26.5 -4.5q10 -2 29.5 -2h25.5q27 -4 37 -28q8 -29 0 -56q-8 -24 -28 -26h-19q-182 8 -407 0q-31 0 -39 26q-8 29 0 48q8 25 24 32q10 4 35 3t39 1q37 2 44 28t7 153 l2 407q0 29 -30 29q-264 6 -318 0q-16 -2 -22 -31v-493q0 -66 15 -82.5t79 -16.5q10 2 31 -2q31 -6 28.5 -55t-35.5 -47q-127 4 -432 0q-20 0 -30.5 24.5t-2 51t34.5 28.5q66 8 76 17q18 12 19 69q2 23 2 101v387q0 39 -35 39q-199 -4 -297 0q-10 0 -20.5 -11.5t-12.5 -27.5 v-389q0 -131 6 -146q8 -18 22.5 -27.5t32 -8.5t35.5 1q37 0 68 -6q31 -12 31 -59t-37 -45q-262 10 -510 0q-25 -2 -33 32.5zM428 879q0 -4 10.5 -10.5t16.5 -6.5q72 -4 309 0q27 0 29 8q2 4 2 11q10 162 67 284q10 23 -2 39q-2 2 -5 6t-8 8.5t-11 10.5q-43 43 -79 55t-93 12 q-76 0 -140.5 -54t-83.5 -132q-12 -57 -12 -231zM1008 891q0 -12 5 -15.5t25 -3.5h301q37 0 37 19v366q-102 66 -182 66q-61 0 -111 -66q-74 -104 -75 -366z" />
<glyph unicode="&#x205f;" horiz-adv-x="480" />
<glyph unicode="&#x20ac;" d="M-6 485v25q0 47 33 47h94v68q0 49 2 73h-96q-23 0 -28 11.5t-5 40.5v24q0 47 33 47h110q41 219 159 354.5t269 135.5q82 0 185 -56q33 -18 45 0q8 10 34.5 7.5t28.5 -19.5q12 -135 12 -276q0 -35 -35.5 -42t-46.5 19q-47 254 -227 254q-190 0 -219 -377h346q33 0 33 -47 v-24q0 -51 -33 -52h-350v-34q0 -72 2 -107h348q33 0 33 -47v-25q0 -51 -33 -51h-336q23 -168 81.5 -262t150.5 -94q164 0 231 231q4 18 27.5 23.5t43 -6t15.5 -33.5q-18 -119 -80 -305q-23 8 -30 8q-39 0 -109 -16.5t-131 -16.5q-154 0 -266.5 124t-149.5 347h-108 q-33 0 -33 51z" />
<glyph unicode="&#x2122;" horiz-adv-x="2099" d="M25 1239l18 145q4 31 18.5 41.5t44.5 10.5q319 -8 680 0q37 2 54.5 -9.5t21.5 -50.5l17 -145v-19q2 -20 -3.5 -29t-13.5 -10.5t-31 -1.5h-49q-12 86 -46 114t-124 28h-10h-12t-10.5 -1t-8.5 -6.5t-2 -11.5v-526q0 -70 11 -82q12 -12 57 -16q23 -4 27 -6q16 -6 14 -49.5 t-35 -45.5h-25q-45 2 -108.5 2t-132 -1t-86.5 -1q-35 -2 -49.5 8.5t-14.5 40.5q0 16 1 22.5t7.5 15t20.5 12.5h12q43 6 52.5 20t9.5 78v530q0 16 -45 17q-86 0 -119 -28t-47 -114h-53q-33 0 -40.5 11.5t-0.5 56.5zM885 600v21q0 41 49 47q47 2 57 15t10 83v463q0 74 -9 89 t-56 15q-33 0 -45 19q-6 18 -6 37q0 47 49 47q162 -6 264 -2q35 2 55 -39l228 -467q4 -8 8 -12.5t6 -4.5h2l227 482q18 43 50 43h247q61 0 62 -50q0 -47 -31 -51q-8 -2 -22 -2q-41 -2 -50.5 -16t-9.5 -86v-463q0 -66 9.5 -81t54.5 -17q6 -2 16 -2q33 0 33 -54q0 -45 -53 -45 q-27 0 -105 1t-142.5 1t-103.5 -2q-72 -4 -71 39v31q0 31 39 31h18q45 4 56.5 18t11.5 78v336q0 10 -9 0q0 -2 -2 -4l-235 -494q-16 -35 -45 -35h-29q-20 0 -27 13l-6 14l-235 489q-8 20 -10 19.5t-2 -12.5v-324q0 -70 10 -85t53 -15h31q39 0 39 -31q0 -61 -27 -72h-22 q-43 14 -269 4q-63 -10 -63 31z" />
<glyph unicode="&#x25fc;" horiz-adv-x="849" d="M0 0v850h850v-850h-850z" />
<glyph unicode="&#xfb01;" horiz-adv-x="1144" d="M74 20q-20 47 24 70l49 8q41 4 48.5 24.5t7.5 123.5v413q0 12 -1 18.5t-4 9.5t-6.5 4t-11.5 1l-71 6q-20 10 -27.5 37t14.5 47q10 8 38 16.5t48.5 17.5t20.5 24q0 195 63 344q43 104 146.5 192t261.5 88q106 0 188 -51t82 -127q0 -51 -35 -77.5t-69 -26.5q-47 0 -74 41 q-37 63 -83 91.5t-81 28.5q-201 0 -201 -452q0 -35 5 -45q6 -12 28 -12q160 -6 342 4q57 2 109 10q51 20 73 -19q-8 -156 -8 -254v-329q0 -102 8.5 -123t49.5 -25l41 -6q35 -6 32 -47t-32 -53q-66 4 -195 4q-158 0 -178 -2q-33 0 -43 31q-16 57 41 69q4 0 13 2t13 2 q41 4 45 21q6 18 7 127v344q0 74 -10.5 89t-61.5 17q-131 4 -256 0q-14 -2 -18.5 -7t-4.5 -30v-413q0 -102 7.5 -124t46.5 -24l61 -6q37 -6 29 -49t-33 -51q-129 6 -215 6q-88 0 -172 -6q-39 -4 -51 28z" />
<glyph unicode="&#xfb02;" horiz-adv-x="1103" d="M40 47q-1 27 7 35q16 16 41 16q57 4 72 21q16 23 16 166v413q0 16 -16 21h-88q-23 0 -27 14q-14 29 -2 58q8 25 29 28l84 35q20 12 20 14q14 281 162 441q141 158 313 157q23 0 65 -5t62 -5q45 0 78 43q29 12 59.5 7t34.5 -23v-1278q0 -66 12.5 -84.5t65.5 -18.5 q8 2 35 -6q23 -4 25 -54t-33 -48h-408h-8q-37 0 -43 18q-16 39 2 72q8 14 41 14q82 0 94 22.5t12 162.5v403q0 14 -9 25.5t-17 11.5q-109 2 -301 -2q-8 0 -13.5 -1t-10.5 -9.5t-9 -24.5v-489q0 -66 15.5 -82.5t78.5 -16.5q14 4 27 -2q27 -4 28 -50t-26 -52h-14q-14 0 -93 2 t-161 2t-150 -4q-29 -2 -41 14q-8 12 -9 39zM385 895q0 -20 25 -21q55 -2 114.5 -2t120 1t82.5 1q14 0 18 37v349q-102 66 -176 65q-68 0 -112 -65q-70 -98 -72 -365z" />
<glyph unicode="&#xfb03;" horiz-adv-x="1802" d="M44 16.5q-11 26.5 0 54t42 29.5h20q70 0 86.5 16.5t16.5 88.5v481q0 4 -5 9t-7 5h-88q-49 0 -62 29q-10 39 4 66q4 2 35 18q88 18 125 39q8 102 12 139t23.5 97.5t55.5 102.5t101 101q72 66 174.5 109t221.5 42t200 -67q29 -33 56 -14q78 55 168 88t192.5 26.5 t173.5 -67.5q41 -31 41 -80q0 -31 -48 -70.5t-81 -39.5q-27 0 -55.5 27.5t-71.5 55t-106 27.5q-76 0 -142.5 -55t-85.5 -133q-12 -53 -12 -236q0 -27 14 -31q92 -8 351 3q86 2 172 32q27 8 46 -17.5t19 -51.5v-643q0 -63 13.5 -78t64.5 -15q43 8 55.5 -18.5t2 -58 t-24.5 -35.5q-193 6 -428 0q-16 0 -26.5 17.5t-10.5 35.5q0 16 2 28.5t15.5 22.5t37.5 8q57 0 72.5 11.5t17.5 62.5v105v307q0 68 -18.5 98.5t-73.5 32.5q-2 0 -132 2t-146 0q-16 -4 -21 -21l-2 -419q0 -125 12 -148q14 -31 90 -31h39q25 0 37.5 -10t14.5 -20.5t2 -28.5 t-10.5 -35.5t-22.5 -17.5q-242 4 -483 -2q-39 0 -39 51q0 45 34 59h19q70 0 81 22.5t11 156.5v399q-4 31 -16 33q-70 4 -192 4t-167 -6q-10 0 -12 -25q0 -51 -1 -151.5t-1 -184.5t2 -155q2 -57 17.5 -72t78.5 -15q45 0 68 -4q37 -14 29.5 -64t-37.5 -48q-256 10 -502 0 q-25 0 -36 26.5zM426 887q0 -25 8 -25q174 -12 371 4q6 0 9 7.5t4 18.5t1 20.5t-1 20.5t-1 13q6 154 57 246q0 6 -8 16q-8 12 -20 21q-74 66 -182 65q-76 0 -141.5 -54t-84.5 -132q-12 -57 -12 -221z" />
<glyph unicode="&#xfb04;" horiz-adv-x="1761" d="M40 63.5q9 26.5 38 34.5q12 4 33.5 4h27.5q43 2 57.5 19.5t14.5 83.5v485q0 10 -6 10h-92q-49 0 -64 29q-4 45 6 66q4 6 33 18q84 16 123 41q14 172 35 238q33 88 160 200q74 66 173 110t213.5 43t194.5 -69l12 -10q12 -10 15 -8q119 100 264 100q20 0 63 -5t66 -5 q43 0 80 43q29 14 63.5 6t34.5 -37v-1265q0 -70 6 -80q6 -8 24.5 -10.5t36 -1.5t31.5 -1q27 -4 37 -28q8 -29 0 -56q-8 -24 -28 -26h-19q-182 8 -407 0q-35 0 -43 26q-8 29 0 48q8 23 22.5 29.5t43 5.5t36.5 1q37 2 44 29t7 152l2 407q0 29 -16 29q-276 6 -332 0 q-16 -2 -22 -31v-493q0 -66 15 -82.5t79 -16.5q10 2 31 -2q31 -6 28.5 -55t-35.5 -47q-127 4 -432 0q-20 0 -30.5 24.5t-2 51t34.5 28.5q66 8 76 17q18 12 19 69q2 23 2 101v387q0 35 -9 37q-4 2 -10 2q-219 -6 -328 0q-16 0 -18 -19v-409q0 -131 6 -146q0 -2 4 -6l4 -6 l4 -6q4 -8 13 -13q20 -4 65 -4q18 4 68 -6q31 -12 31 -59t-37 -45q-262 10 -510 0q-23 0 -34 23.5t-2 50zM428 879q0 -16 12 -17q76 -4 324 0q27 0 29 8q2 4 2 11q10 162 67 284q10 23 -2 39q-2 2 -5 6t-8 8.5t-11 10.5q-43 43 -79 55t-93 12q-76 0 -140.5 -54t-83.5 -132 q-12 -57 -12 -231zM1008 891q0 -12 5 -15.5t25 -3.5h316q23 0 22 19v366q-102 66 -182 66q-61 0 -111 -66q-74 -104 -75 -366z" />
</font>
</defs>
</svg>
