<?xml version="1.0" standalone="no"?>
<!DOCTYPE svg PUBLIC "-//W3C//DTD SVG 1.1//EN" "http://www.w3.org/Graphics/SVG/1.1/DTD/svg11.dtd" >
<svg xmlns="http://www.w3.org/2000/svg">
<metadata></metadata>
<defs>
<font id="etbookdisplayitalic" horiz-adv-x="1390" >
<font-face units-per-em="2048" ascent="1638" descent="-410" />
<missing-glyph horiz-adv-x="520" />
<glyph horiz-adv-x="2048" />
<glyph horiz-adv-x="2048" />
<glyph unicode="&#xd;" horiz-adv-x="681" />
<glyph unicode=" "  horiz-adv-x="520" />
<glyph unicode="&#x09;" horiz-adv-x="520" />
<glyph unicode="&#xa0;" horiz-adv-x="520" />
<glyph unicode="!" horiz-adv-x="608" d="M178 72q0 10 2 16q6 49 34 80t69 31q37 0 60.5 -28t23.5 -73q0 -53 -30 -90t-73 -37q-39 0 -62.5 28t-23.5 73zM303 362l123 916q8 55 18.5 66.5t55.5 11.5h43q39 0 53 -7t14 -32q0 -14 -6 -37l-254 -918q-6 -12 -18.5 -15t-20.5 2t-8 13z" />
<glyph unicode="&#x22;" horiz-adv-x="868" d="M344 745l33 310q18 176 52 238.5t114 62.5q35 0 57.5 -21.5t22.5 -56.5q0 -29 -15 -66q-6 -18 -71 -159l-140 -308h-53zM717 745l31 306l10 104q10 92 52 146.5t105 54.5q37 0 58.5 -20.5t21.5 -55.5q0 -53 -80 -229l-141 -306h-57z" />
<glyph unicode="#" horiz-adv-x="1392" d="M90 373v116h232l81 394h-313v116h338l88 426h113l-88 -426h438l88 426h113l-88 -426h206v-116h-229l-82 -394h311v-116h-333l-84 -424h-117l90 424h-442l-84 -424h-115l86 424h-209zM434 492h443l79 391h-440z" />
<glyph unicode="$" horiz-adv-x="966" d="M141 217q0 43 23.5 69.5t60.5 26.5q31 0 51.5 -22.5t20.5 -54.5q0 -12 -4 -41t-4 -43q0 -61 55 -105l109 524q8 39 -9 60q-125 131 -125 287q0 127 72 214t199 109l22 119q4 16 31 16q25 0 19 -18l-19 -94q-2 -8 4 -12.5t15 -4.5q37 0 53 -2q27 0 28 19l19 96q0 16 24 16 q10 0 17.5 -5t5.5 -13l-18 -98q-4 -25 18 -33q76 -27 119 -83t43 -136q0 -111 -70 -111q-31 0 -48 22.5t-17 57.5q0 25 12 78q0 2 1 10t1 12q0 53 -55 88q-12 8 -18.5 4t-10.5 -24l-107 -524q184 -176 185 -332q0 -127 -80 -211t-217 -105q-23 -4 -29 -34l-22 -119 q-4 -14 -29 -15q-10 0 -15.5 4.5t-2.5 10.5l22 121q0 25 -18 26q-25 0 -54 4q-12 -2 -24 -22l-31 -131q-6 -14 -29 -11q-8 2 -13 5.5t-3 9.5l33 166q-86 33 -138.5 94t-52.5 135zM395 59q0 -6 1 -13t1 -9t1 -5t4.5 -4t9.5 -3q37 -6 63 -7q6 0 8 4.5t5.5 13.5t7.5 15l82 400 q6 33 -9 49q-6 6 -15 16t-17.5 18.5t-16.5 14.5q-16 8 -28 -25zM430 973q0 -70 41 -139q25 -41 31 -15l67 324q4 23 1 28t-23 -4q-117 -66 -117 -194zM535 743q12 -14 34.5 -34.5t32.5 -32.5q18 -14 23 6l96 473q8 37 -14 39q-31 2 -62 0q-16 0 -22 -23zM545 46q0 -3 1 -8 t3 -7t6 0q70 25 112 82t42 131q0 84 -72 178q-14 14 -21 -6l-71 -353v-6v-11z" />
<glyph unicode="%" horiz-adv-x="1497" d="M225 950q29 152 130.5 257.5t217.5 105.5q121 0 179.5 -107.5t29.5 -259.5q-29 -154 -129 -258t-217 -104q-121 0 -180 106.5t-31 259.5zM367 946q-59 -305 75 -305q140 0 197 309q59 305 -72 305q-139 0 -200 -309zM391.5 -30.5q-6.5 12.5 3.5 30.5q508 774 690 1047 q51 78 164 245q20 27 39 25l51 -4q14 -8 12 -19.5t-10 -17.5l-856 -1296q-18 -25 -41 -25h-28q-18 2 -24.5 14.5zM983 403q29 152 130 257.5t218 105.5q119 0 178.5 -107.5t30.5 -261.5q-29 -152 -129 -257t-217 -105q-121 0 -180.5 107.5t-30.5 260.5zM1124 397 q-59 -303 76 -303q140 0 197 309q59 305 -72 306q-139 0 -201 -312z" />
<glyph unicode="&#x26;" horiz-adv-x="1474" d="M188 383q0 129 92.5 230.5t239.5 140.5q31 8 31 20q0 6 -6 8q-184 70 -185 226q0 150 139.5 250t340.5 100q68 0 144.5 -16.5t147 -66.5t70.5 -124q0 -29 -21.5 -49.5t-50.5 -20.5q-53 0 -81 76q-2 6 -5.5 20.5t-5.5 20.5q-25 98 -184 98q-141 0 -229 -86t-88 -229 q0 -82 39.5 -135t99.5 -53q6 0 23.5 2t31.5 2t29.5 -2t25 -11.5t9.5 -23.5q0 -20 -11.5 -30.5t-31 -12.5t-38 -1t-42 4t-31.5 3q-113 0 -187.5 -85t-74.5 -214q0 -172 113.5 -274.5t306.5 -102.5q164 0 319.5 103.5t155.5 263.5q0 84 -53.5 134t-149.5 50 q-63 0 -110.5 -17.5t-47.5 -37.5q0 -12 15 -27q31 -31 33 -59q2 -53 -46 -62q-49 -10 -75 41q-8 18 -11 39q-6 63 68 141q47 47 109.5 66.5t173.5 19.5q33 0 99.5 -2t98.5 -2q55 0 89 14.5t34 35.5q0 12 -17.5 33.5t-19.5 39.5q0 51 58 51q29 0 44 -19t15 -48 q0 -88 -80 -143.5t-219 -65.5q-37 0 -33 -10l6 -6q82 -70 82 -166q0 -139 -102 -247t-237.5 -157t-266.5 -49t-250 41t-206 140.5t-87 240.5z" />
<glyph unicode="'" horiz-adv-x="456" d="M322 791l22 251q4 61 10 95t22.5 95.5t51.5 92.5t86 31t69.5 -33t7.5 -88t-32.5 -111.5t-56.5 -122.5l-117 -225q-16 -29 -29 -31q-4 -2 -12 -2q-23 0 -22 48z" />
<glyph unicode="(" horiz-adv-x="626" d="M205 248q0 588 581 1165q23 21 33 2.5t-8 -39.5q-313 -379 -436 -854q-125 -483 45 -966q12 -37 -8 -45q-20 -10 -35 24q-172 377 -172 713z" />
<glyph unicode=")" horiz-adv-x="585" d="M-82 -481q-10 18 16 53q147 172 244 354q117 231 184 488q119 463 -47 970q-8 29 9 39q18 10 36 -26q172 -379 172 -711q0 -397 -270 -795q-137 -201 -303 -362q-29 -29 -41 -10z" />
<glyph unicode="*" horiz-adv-x="1140" d="M197 770q0 49 23.5 67.5t78.5 30.5q66 12 115 29q57 16 118 53q35 14 5 31q-68 35 -125 51q-25 8 -115 31q-53 14 -76.5 33.5t-23.5 64.5q0 12 6 27.5t25.5 31t50.5 15.5q37 0 77 -45q4 -4 12.5 -14.5t14.5 -16.5q74 -88 166 -145q16 -10 21 -6t5 24q-6 113 -28 182 q-27 88 -27 125q0 33 19.5 58.5t56.5 25.5t57.5 -25.5t20.5 -58.5q0 -29 -29 -125q-27 -92 -29 -182q-2 -25 7.5 -25.5t25.5 11.5q88 55 162 141q16 20 27 31q37 45 75 45q45 0 63.5 -25.5t18.5 -48.5q0 -45 -23.5 -64.5t-76.5 -33.5q-113 -31 -115 -31q-55 -16 -121 -49 q-14 -8 -17 -12t1 -8.5t16 -12.5q63 -37 121 -53q49 -16 115 -29q55 -12 77.5 -30.5t22.5 -67.5q0 -27 -20.5 -49.5t-50.5 -22.5q-51 0 -90 45q-14 14 -27 33q-72 90 -162 146q-27 14 -27 -11q2 -129 29 -204q2 -8 7 -18.5t8.5 -17.5t5.5 -16q8 -33 8 -59q0 -39 -21.5 -64.5 t-58.5 -25.5t-58.5 25.5t-21.5 64.5q0 33 10 59q2 8 9.5 25.5t9.5 26.5q27 63 28 198q0 31 -24 17q-86 -51 -162 -146q-33 -41 -53 -55q-27 -23 -64 -23q-33 0 -53 22.5t-20 49.5z" />
<glyph unicode="+" d="M141 623v118h492v504h119v-504h495v-118h-495v-500h-119v500h-492z" />
<glyph unicode="," horiz-adv-x="526" d="M110 -345q-6 17 11 30q4 2 44 32.5t51 43t37 39t35 52t9 54.5q0 37 -33 90q-33 61 -33 84q0 41 29 71.5t64 30.5q45 0 73.5 -43t28.5 -104q0 -221 -285 -389q-25 -8 -31 9z" />
<glyph unicode="-" horiz-adv-x="679" d="M123 382q-4 5 0 40q0 12 8 41q8 23 16 24q8 2 27 2h428q10 0 14.5 -1t8.5 -7t0 -18q-4 -37 -13 -68q-8 -23 -26 -18h-426q-33 0 -37 5z" />
<glyph unicode="." horiz-adv-x="499" d="M158 86q4 47 33.5 79t68.5 32t61.5 -28t22.5 -71q0 -53 -28.5 -90t-73.5 -37q-47 0 -68.5 34t-15.5 81z" />
<glyph unicode="/" horiz-adv-x="714" d="M-14 -78q133 246 331.5 651.5t307.5 647.5q0 2 6 11t9 12t9 10.5t15.5 9.5t19.5 0l51 -7q12 -2 19.5 -14t-0.5 -41q-420 -850 -625 -1292q-35 -43 -57 -41l-56 4q-47 6 -30 49z" />
<glyph unicode="0" horiz-adv-x="884" d="M123 330q0 141 76.5 274t216 229.5t223.5 96.5q76 0 140.5 -105.5t64.5 -234.5q0 -209 -117 -363q-113 -152 -283 -227q-76 -33 -120 -33q-74 0 -137.5 111.5t-63.5 251.5zM279 324q0 -111 41.5 -186t99.5 -75q104 0 187 150.5t83 347.5q0 113 -47 189.5t-113 76.5 q-98 0 -174.5 -152.5t-76.5 -350.5z" />
<glyph unicode="1" horiz-adv-x="778" d="M147 18q4 23 19 27q92 4 143 25q31 12 43 80l123 624q2 16 -1 20.5t-11 0.5l-8 -4l-142 -64q-8 2 -10 21q0 27 16 32l263 150q16 12 43 12q10 0 20 -10.5t8 -18.5l-145 -737q-12 -57 -12 -74q0 -29 28.5 -40t118.5 -17q8 0 9 -12.5t-4 -23.5t-15 -11q-342 4 -475 0 q-14 0 -11 20z" />
<glyph unicode="2" horiz-adv-x="847" d="M69 15.5q1 15.5 7 27.5q84 94 137 154q59 61 200.5 181t202.5 189q61 72 62 154q0 57 -39 87t-94 30q-53 0 -105.5 -29t-81 -56.5t-73.5 -78.5q-14 -14 -29.5 2t-7.5 33q182 223 366 223q98 0 161 -66.5t63 -152.5q0 -70 -44 -132.5t-90.5 -95t-132.5 -84.5 q-207 -127 -344 -258q-10 -10 13 -12q8 -2 20 -2h301q92 0 123 55q37 66 39 70q10 25 39 14q16 -4 12 -16q-61 -135 -98 -234q-14 -20 -43 -20q-266 4 -555 0q-10 2 -9 17.5z" />
<glyph unicode="3" horiz-adv-x="874" d="M-2 -293q0 29 14.5 52.5t40.5 23.5q25 0 107 -41q61 -33 114 -33q123 0 237 136.5t114 324.5q0 88 -40 144.5t-108 56.5q-53 0 -115 -27q-31 -12 -34 12q0 29 20 37q348 156 348 326q0 51 -33.5 84t-82.5 33q-127 0 -299 -174q-10 -10 -29 3t-6 29q211 231 407 232 q72 0 119 -22.5t63.5 -57.5t21.5 -54.5t5 -37.5q0 -88 -82 -163t-180 -120q-6 -2 -8 -7t1 -8t7 -3q68 -16 121 -66q68 -68 67 -151q0 -164 -110.5 -309.5t-260 -224.5t-280.5 -79q-139 0 -139 84z" />
<glyph unicode="4" horiz-adv-x="917" d="M131 90q0 63 12 78q422 520 648 741l30 2q14 2 21.5 -6t5.5 -22q-80 -399 -137 -676q-2 -20 8 -23h139q12 0 20.5 -15t2.5 -42q-8 -53 -31 -55h-125q-35 0 -47 -25l-82 -395q-2 -16 -15.5 -24.5t-25.5 -4.5h-72q-18 0 -29.5 6t-7.5 25l80 399q2 6 -2 11.5t-9 6.5t-9 1 h-352q-23 0 -23 18zM256 211q-8 -12 12 -18h252q29 0 31 14q98 385 125 493h2q-197 -190 -422 -489z" />
<glyph unicode="5" horiz-adv-x="884" d="M23 -276q0 29 24.5 64.5t54.5 35.5q23 0 103 -35q61 -27 94 -27q127 0 220 117t93 271q0 82 -43 145t-103 94t-102 45.5t-63 16.5q-31 2 -34 13t5 30q18 68 47 189.5t37 156.5q2 12 5.5 21t6.5 15.5t5 11.5t8 8l8 4t12.5 2t13.5 1h17h21h2q258 -8 276 8q8 6 21 45 q4 8 22.5 9t18.5 -11q-39 -133 -52 -180q-8 -25 -32 -24q-35 0 -139.5 4t-159.5 4q-16 0 -21 -15q-23 -88 -33 -147q-2 -4 4.5 -9t20.5 -7q166 -27 266 -119q96 -84 96 -238q0 -182 -153 -352q-80 -86 -190.5 -154.5t-223.5 -68.5q-47 0 -100 16.5t-53 59.5z" />
<glyph unicode="6" horiz-adv-x="948" d="M176 432q0 371 330 690q76 72 148.5 122t143 76t105.5 34t92 18q21 0 23 -14q4 -10 -3 -20.5t-18 -12.5q-205 -57 -368.5 -220t-245.5 -425q-4 -12 4 -10q14 4 33 24q45 57 98 108.5t111.5 84.5t83.5 33q59 0 119.5 -89.5t60.5 -212.5q0 -225 -151.5 -430.5 t-297.5 -205.5q-121 0 -194.5 139t-73.5 311zM340 389q0 -137 53 -224t127 -87q88 0 154.5 135t66.5 313q0 111 -35.5 191t-80.5 80q-59 0 -176 -135q-72 -86 -90.5 -139.5t-18.5 -133.5z" />
<glyph unicode="7" horiz-adv-x="837" d="M102 -311.5q4 14.5 8.5 26t10.5 19.5l600 1009q6 20 -39 21q-49 -2 -180 3t-178 -3q-37 -4 -48.5 -18.5t-25.5 -57.5l-41 -121q-4 -12 -27 -8q-12 4 -13 8t1 15l70 280q8 31 16 37t41 8q74 8 227.5 2t171.5 -6q37 0 111 6q53 4 53 -14v-18q-12 -35 -49 -101l-563 -1034 q-33 -59 -45.5 -73.5t-30.5 -14.5h-45q-16 0 -22.5 10t-2.5 24.5z" />
<glyph unicode="8" horiz-adv-x="948" d="M117 297q0 182 315 375q20 12 6 26q-121 131 -121 228q0 117 158 231q35 25 109.5 62.5t120.5 37.5q88 0 152.5 -75.5t64.5 -141.5q0 -141 -277 -309q-12 -8 0 -20q154 -143 154 -303q0 -172 -153.5 -302.5t-274.5 -130.5q-90 0 -178 121q-76 104 -76 201zM250 352 q0 -86 69.5 -196.5t126.5 -110.5q53 0 145.5 80t92.5 205q0 166 -199 319q-236 -152 -235 -297zM444 995q0 -100 152 -241q57 39 91 65.5t69 76.5t35 99q0 66 -66 125.5t-111 59.5q-43 0 -106.5 -52.5t-63.5 -132.5z" />
<glyph unicode="9" horiz-adv-x="1011" d="M76 -410q0 12 14 23q236 84 370 216t218 349q10 37 8 39t-10 -8q-29 -35 -65 -73t-109.5 -85t-139.5 -47q-80 0 -132 78t-52 207q0 133 49 258t119 206t144.5 130t130.5 49q123 0 201.5 -141.5t78.5 -319.5q0 -158 -76.5 -332t-212.5 -307q-125 -121 -284 -192 q-76 -35 -222 -74q-27 -6 -30 24zM328 385q0 -109 33.5 -188.5t87.5 -79.5q27 0 70.5 24.5t94 70.5t85 129t34.5 183q0 137 -55 222t-123 85q-90 0 -158.5 -123.5t-68.5 -322.5z" />
<glyph unicode=":" horiz-adv-x="608" d="M231 88q4 49 35 80t72 31q39 0 61.5 -28t22.5 -73q0 -53 -28.5 -90t-74 -37t-69 36t-19.5 81zM362 760q18 111 107 110q37 0 60.5 -28.5t23.5 -73.5q0 -53 -29.5 -89t-72.5 -36t-67 35t-22 82z" />
<glyph unicode=";" horiz-adv-x="608" d="M106 -360q-12 23 21 49q164 106 164 217q0 33 -31 90q-33 57 -33 100t27 73t65 30q45 0 75 -43t30 -109q0 -240 -289 -412q-18 -10 -29 5zM352 750q0 47 30 83.5t77 36.5q37 0 61.5 -30.5t24.5 -75.5q0 -53 -31 -87t-76 -34q-37 0 -61.5 31t-24.5 76z" />
<glyph unicode="&#x3c;" d="M143 633v104l1104 475v-131l-942 -397l942 -397v-131z" />
<glyph unicode="=" d="M143 385v121h1104v-121h-1104zM143 868v121h1104v-121h-1104z" />
<glyph unicode="&#x3e;" d="M143 156v131l944 395l-944 397v133l1104 -477v-104z" />
<glyph unicode="?" horiz-adv-x="825" d="M193 86q4 49 32.5 81t67.5 32t62.5 -28t23.5 -73q0 -55 -30 -91t-75 -36q-82 0 -81 115zM313 346q16 248 103 363q16 20 41.5 41.5t46 34t55.5 33t49 28.5q125 78 125 184q0 70 -51 117t-129 47q-31 0 -88 -16.5t-84 -16.5q-25 0 -41 23.5t-16 58.5q0 49 55 81t137 32 q131 0 213 -91.5t82 -238.5q0 -203 -109 -307q-33 -31 -153 -96q-94 -49 -131 -121q-37 -70 -58 -156q-2 -8 -14 -14t-22.5 -2t-10.5 16z" />
<glyph unicode="@" horiz-adv-x="1910" d="M205 461q0 426 278.5 711.5t687.5 285.5q328 0 529 -188.5t201 -505.5q0 -303 -165 -519t-399 -216q-160 0 -159 147q0 39 8 98q4 23 -6 21q-6 -2 -19 -16q-63 -82 -125 -138q-125 -113 -237 -112q-82 0 -135.5 70.5t-53.5 174.5q0 131 72 286t186 276q164 168 308 168 q111 0 157 -97q6 -12 10.5 -14t7.5 2t7 11t6 9q16 47 55 60l84 16q35 -4 27 -57q-2 -4 -20.5 -59.5t-41 -125t-48 -158.5t-43 -171t-26 -152.5t5 -113.5t50.5 -43q55 0 125 42t123 107q82 100 129 239.5t47 282.5q0 276 -181.5 444.5t-469.5 168.5q-367 0 -619 -275.5 t-252 -685.5q0 -360 220.5 -579.5t570.5 -219.5q281 0 490.5 137.5t324.5 409.5q16 16 33 17q9 -2 34 -27q-94 -291 -333.5 -449.5t-552.5 -158.5q-387 0 -639 251t-252 646zM780 305q0 -59 33 -101t80 -42q119 0 266 198q66 88 105 207q45 144 45 232q0 66 -35 106.5 t-88 40.5q-86 0 -166 -96q-96 -113 -168 -275.5t-72 -269.5z" />
<glyph unicode="A" horiz-adv-x="1419" d="M-86 20q2 27 29 27q82 16 131 51t129 140l852 1108q4 10 22 14q19 6 43 6q19 0 39 -4q25 -6 25 -35l12 -1163q0 -59 25.5 -82t70.5 -29h58h14q21 -3 21 -24q0 -5 -1 -11q-2 -22 -23 -22h-5q-123 5 -267.5 5t-310.5 -5q-10 0 -14 12t1 25.5t19 13.5q135 0 182.5 35 t47.5 133l-2 334q0 6 -10.5 14t-18.5 8h-403q-14 0 -29 -14l-256 -340q-39 -51 -39 -86q0 -76 117 -80h53q12 0 16 -13t-3 -27.5t-19 -14.5q-114 4 -237 4t-255 -4q-15 0 -15 16q0 4 1 8zM656 674q8 -10 30 -10l291 2q39 -1 39 28v424q0 18 -6 24q-4 4 -9 5q-1 0 -5 -1 q-8 -3 -15 -11l-324 -441q-4 -5 -4 -10q-1 -5 3 -10z" />
<glyph unicode="B" horiz-adv-x="1323" d="M37 10q-3 7 -3 13q0 8 5 16q8 14 24 14q43 0 64 2q66 8 96.5 50t52.5 151l173 809q10 45 12 61.5t3 52t-10.5 51t-38 29t-69.5 13.5q-10 2 -25.5 1t-21.5 -1q-18 0 -16 26q4 25 22 25h578q197 0 307 -75t110 -210q0 -109 -79.5 -188.5t-216.5 -106.5q-8 -2 -7.5 -9 t7.5 -9q121 -43 190.5 -131t69.5 -201q0 -185 -150 -293q-148 -106 -404 -106h-10q-173 2 -333.5 2t-307.5 -2q-16 0 -22 16zM457 207q0 -84 40 -116t165 -32q168 0 258 62q145 102 145 297q0 139 -99.5 220t-273.5 81h-108q-8 0 -18.5 -6t-10.5 -13l-88 -415 q-10 -55 -10 -78zM580 811q-2 -12 7 -20.5t21 -8.5h97q184 0 274 52q131 76 131 221q0 139 -106 184q-66 27 -203 27h-96q-25 0 -37 -23z" />
<glyph unicode="C" horiz-adv-x="1458" d="M59 567q0 219 128 400.5t350.5 286t488.5 104.5q240 0 447 -90q19 -11 19 -37q0 -10 -3 -23q-4 -14 -80 -266q-4 -14 -17.5 -16t-22.5 6t-7 18q4 27 4 51q0 289 -354 289q-311 0 -532.5 -213t-221.5 -522q0 -242 123 -383t342 -141q328 0 545 311q4 8 18 9t23.5 -6 t5.5 -19q-61 -156 -107 -322q-2 -8 -15 -8t-24 8q-33 10 -61 10q-33 0 -125 -18q-162 -33 -270 -33q-276 0 -465 164t-189 440z" />
<glyph unicode="D" horiz-adv-x="1624" d="M4 10q-2 6 -3 11q0 10 6 20q9 16 28 18l67 7q74 2 100.5 35.5t53.5 154.5l176 831q10 43 11 73t-6 49.5t-19 30.5t-38 16.5t-50.5 6.5t-67.5 1h-16q-27 0 -17 30q8 29 31 29h608q330 0 529.5 -162t199.5 -428q1 -311 -247 -526q-245 -213 -602 -213h-7h-714q-17 0 -23 16 zM434 231q-9 -43 -9 -73q0 -48 23 -66q37 -28 168 -29q186 0 308 39q205 66 336 244t131 397q0 141 -54.5 247t-150.5 164t-214 85q-97 22 -207 22q-25 0 -50 -1q-2 0 -15.5 -1.5t-17.5 -2.5t-13.5 -3t-14.5 -8t-9 -16z" />
<glyph unicode="E" horiz-adv-x="1355" d="M35 59q12 2 35.5 1t31.5 -1q74 6 104 40t50 132l180 859q12 57 13 88q0 90 -136 90h-53q-23 2 -18 28q6 27 39 27h1046q29 0 39 -9q7 -6 7 -23q0 -7 -1 -15q-23 -125 -53 -246q2 -6 -4 -9t-17 -3q-12 0 -17 5t-6 10t1 16.5t2 17.5q0 102 -54.5 147.5t-179.5 45.5h-344 q-45 0 -51 -29l-104 -498q-2 -14 8 -20t33 -6h336q92 0 139 28.5t86 110.5q4 14 31 8q18 -2 12 -16q-37 -150 -76 -371q-2 -12 -20 -14q-27 -4 -27 47q0 80 -45 108.5t-174 28.5h-281q-41 0 -47 -29l-88 -409q-4 -20 -5 -37t4 -29t9 -22.5t16.5 -17.5t20.5 -12t25.5 -8 t28 -5t31 -3.5t30.5 -1.5h33h8h143q186 0 303 84q55 39 81 64t67 78q6 10 17 12t18.5 -2t7.5 -12q-12 -29 -32.5 -94.5t-37 -117.5t-22.5 -61q-18 -18 -82 -18q-303 4 -570.5 4t-498.5 -4q-9 0 -17 10q-6 8 -6 16q0 38 31 37z" />
<glyph unicode="F" horiz-adv-x="1124" d="M18 10q-1 4 -2 9q0 10 6 20q8 14 21 12h23q84 0 120.5 36t59.5 144l182 859q12 57 12 84q0 90 -133 90h-35q-20 0 -14 28q6 31 32 31h3q203 -2 428 -2t471 2q16 0 28 -2q13 -1 23 -11q7 -7 7 -18q0 -4 -1 -10l-53 -252q0 -8 -25 -12q-8 0 -13 3t-6 9t-1 12.5t1 14.5t1 10 q0 111 -44 153t-159 42h-250q-37 0 -47 -29q-4 2 -33.5 -121t-56.5 -246l-26 -123q-8 -37 28 -36h70.5h122h90.5q78 2 120 31.5t85 109.5q2 6 16 12t25.5 0t5.5 -31q-57 -201 -78 -364q-2 -12 -13.5 -16.5t-22.5 0t-11 12.5q0 104 -33 140t-123 36h-278q-25 0 -31 -29 l-80 -379q-9 -46 -9 -79q-1 -37 11 -57q22 -38 129 -38q23 6 42.5 -1t17.5 -29q-4 -27 -29 -29q-132 2 -271 2t-286 -2q-13 0 -17 14z" />
<glyph unicode="G" horiz-adv-x="1529" d="M125 582q0 328 246.5 551t629.5 223q217 0 478 -94q16 -4 22 -43l8 -248q4 -18 -19.5 -21.5t-27.5 8.5q-41 162 -160.5 249t-308.5 87q-297 0 -482 -212t-185 -527q0 -530 518 -530q94 0 178 22.5t119 56.5q29 27 49 110t20 136q0 51 -24.5 66.5t-98.5 23.5l-18 2 q-14 2 -15 15.5t7 26t16 12.5q137 -4 258 -4t228 4q11 -2 11 -18q0 -4 -1 -10q-4 -26 -17 -28h-26q-45 -6 -72.5 -16t-45 -36t-23 -39t-14.5 -62t-13 -66q-14 -37 -14 -67q0 -14 3 -27q9 -41 74 -43q10 -2 9.5 -21.5t-17.5 -23.5q-293 -76 -579 -76q-188 0 -347 68.5 t-262.5 212t-103.5 338.5z" />
<glyph unicode="H" horiz-adv-x="1583" d="M-31 23q4 29 21 28h41q92 0 134 42t68 163l177 836q14 63 14 90q0 88 -127 88h-68q-18 6 -14 22q0 31 25 31q140 -6 285 -6t294 6q16 0 23.5 -7t5.5 -18q-2 -8 -4 -14t-5 -9t-8.5 -4t-9.5 -1h-13h-15q-98 0 -138.5 -35t-62.5 -145l-72 -347q-6 -12 2 -23t21 -11h653 q12 0 23.5 10t13.5 20l74 353q11 58 11 95t-31 61q-32 24 -101 24q-39 0 -41 12q-2 6 -2 14q0 25 24 25q165 -7 300 -7t241 7q17 0 17 -18q0 -5 -1 -11q-6 -16 -22 -22h-53q-72 -6 -106 -48t-58 -161l-176 -834q-13 -40 -13 -73q0 -29 10 -52q22 -49 113 -55q2 0 26.5 1 t35 -4t10.5 -21q0 -20 -33 -29q-140 6 -280.5 6t-280.5 -6q-16 0 -22.5 6t-4.5 18q4 25 31 29q14 2 37 2h33q70 8 101.5 46t51.5 134l74 353q2 10 2 18q0 29 -29 29h-643q-31 0 -36 -27l-80 -375q-9 -45 -9 -78q0 -38 12 -60q22 -40 120 -40h10q2 0 15 1t19.5 0t14.5 -3 t12 -9t2 -17q-5 -27 -25 -27h-5q-216 3 -361.5 3t-220.5 -3q-27 0 -27 21v6z" />
<glyph unicode="I" horiz-adv-x="729" d="M47 27q8 25 33 24h10q92 0 127 37q37 39 59 143l183 861q15 47 15 81q0 28 -10 47q-22 42 -124 48h-24.5t-19.5 8t-1 24q6 23 33 23q129 -6 262.5 -6t271.5 6q14 0 14 -13q0 -7 -4 -18q-10 -31 -36 -22q-100 -6 -135 -38t-58 -142l-182 -861q-9 -43 -9 -75q0 -47 20 -70 q32 -37 138 -37h11q25 0 20 -29q-8 -18 -25 -22q-190 5 -328.5 5t-226.5 -5q-17 0 -17 16q0 6 3 15z" />
<glyph unicode="J" horiz-adv-x="692" d="M-362 -530q0 39 30 79q23 31 72 31q14 0 30.5 -5t35 -13t28.5 -13q69 -22 111 -22h4q141 0 201 133q23 55 38 139l244 1293q10 57 10 92q0 26 -6 39q-18 43 -96 47h-34.5t-35.5 2q-20 0 -18 22q4 29 27 29q124 -7 262 -7t290 7q19 0 19 -18q0 -5 -2 -13q-6 -16 -17.5 -22 t-39.5 -4h-27q-70 -8 -99.5 -44t-48.5 -132l-213 -1121q-29 -150 -72.5 -234.5t-135.5 -160.5q-195 -162 -412 -162q-145 0 -145 58z" />
<glyph unicode="K" horiz-adv-x="1454" d="M18 20q6 18 15.5 23.5t34 4.5t26.5 -1q76 8 109 45t55 137l184 861q12 53 13 90q0 90 -125 90h-15q-14 -2 -10 22q2 29 27 29q144 -5 274 -5t248 5q25 0 14 -31q-8 -20 -24 -20h-23q-96 -2 -135 -37t-61 -146l-76 -362q-4 -14 3 -19.5t28 7.5q68 47 276.5 199.5 t329.5 234.5q59 41 59 74q0 27 -18.5 38t-67.5 11q-10 0 -14 1t-7 6t1 17q4 27 22 27q80 -4 199.5 -4t279.5 4q17 -1 19 -11q1 -3 1 -5q0 -8 -5 -17q-6 -12 -13 -14q-12 -2 -16 -4l-84 -17q-156 -29 -375 -194q-246 -182 -405 -305q-23 -16 -6 -39l428 -535 q59 -76 118.5 -103.5t139.5 -27.5h14q10 0 11 -14.5t-6 -27.5t-17 -13q-70 4 -146.5 4t-158.5 -4q-27 0 -43 22l-500 625l-59 -37q-16 -12 -21 -33l-72 -344q-16 -47 -16 -83q0 -31 12 -52q25 -47 144 -47q16 2 27.5 -4t9.5 -21q-4 -20 -25 -26q-144 4 -283 4t-272 -4 q-24 5 -24 20q0 3 1 6z" />
<glyph unicode="L" horiz-adv-x="1234" d="M33 4q-2 7 -2 13q0 11 7 21q11 14 23 15h20.5t18.5 2q76 4 113 48t59 157l174 832q14 64 14 99q0 37 -31 57q-32 22 -103 22q-4 0 -16.5 -1t-15.5 -1t-11.5 3t-6 10t2.5 19q8 23 18 23q142 -8 284 -8t283 8q23 0 17 -31q-2 -6 -5.5 -10t-5.5 -7t-9 -4t-9 -1h-12h-9 q-96 0 -136 -35t-62 -145l-178 -840q-12 -36 -12 -67q1 -27 9 -51q20 -52 101 -54h211q180 2 287 61q92 51 180 160q11 14 31 9q16 -4 15 -17q0 -4 -1 -8q-16 -35 -46 -124t-42 -122q-14 -41 -53 -41q-23 0 -539 3q-221 1 -350 1q-172 0 -180 -2q-10 -2 -17 -2q-15 0 -16 8z " />
<glyph unicode="M" horiz-adv-x="1808" d="M-12 23q6 23 22 22q106 14 162 82q41 49 98 244l205 702q20 49 20 88q1 27 -9 51q-22 56 -126 58q-43 0 -61 4q-12 6 -5 28.5t25 18.5q84 -2 159 -2q112 0 204 4q6 1 11 1q28 0 28 -19l143 -1020q4 -16 11.5 -23.5t17.5 4.5l684 1041q10 16 39 16q100 -3 179 -3t136 3 q25 0 27 -10q1 -3 1 -6q0 -9 -4 -21q-5 -16 -18 -14h-14q-96 0 -137 -36t-64 -146l-182 -861q-15 -43 -15 -79q-1 -28 9 -51q22 -52 123 -52h6q14 0 19.5 -1t12.5 -7t-1 -21q-2 -10 -10.5 -17t-16.5 -5q-72 4 -205.5 4t-328.5 -4q-20 -2 -15 29q6 25 21 24q55 0 82 4 q59 10 88.5 49t48.5 129l188 869q4 16 2 23t-9 2t-15 -17l-701 -1106q-22 -12 -49 -12h-8q-32 2 -35 14l-151 1094q-4 37 -17 14q-4 -6 -6 -12l-244 -836q-12 -41 -12 -86q0 -63 36 -95t114 -38q14 0 6 -25q-2 -25 -17 -24q-132 5 -242 5t-198 -5q-13 0 -13 17q0 5 1 10z " />
<glyph unicode="N" horiz-adv-x="1615" d="M25 25q6 23 22 20q102 14 146.5 62.5t68.5 171.5l187 923q-14 18 -30 30.5t-37.5 18.5t-33.5 9.5t-42 6.5t-40 5q-18 4 -14 28q2 23 22 23q45 -2 105 -2t135 2q55 0 66 -16l671 -1035q27 -39 39 0l166 783q10 48 10 84q0 51 -20 80q-35 49 -160 57q-10 0 -10 24 q4 23 20 23q132 -3 246 -3t211 3h3q12 0 12 -9q0 -7 -7 -20q-8 -16 -18 -16q-96 -14 -145.5 -64.5t-71.5 -158.5l-228 -1078q-2 -8 -28 -9h-4q-22 0 -31 9l-703 1100q-23 29 -30 -8l-152 -780q-8 -46 -8 -83q0 -50 16 -83q28 -57 138 -72q20 0 25 -5t3 -23q-4 -27 -18 -27 q-140 5 -256 5t-209 -5q-18 -2 -18 16q0 6 2 13z" />
<glyph unicode="O" horiz-adv-x="1677" d="M180 588q0 313 237.5 540.5t565.5 227.5q268 0 443.5 -179.5t175.5 -443.5q0 -319 -237 -544.5t-572 -225.5q-268 0 -440.5 178t-172.5 447zM373 537q0 -238 110.5 -373t309.5 -137h5q257 0 433 220q178 222 178 550q-1 223 -115 360q-113 135 -303 135h-6 q-236 0 -381 -155q-106 -113 -168.5 -275t-62.5 -325z" />
<glyph unicode="P" horiz-adv-x="1155" d="M-39 20q6 27 19 27q94 4 134 45t66 164l174 823q8 51 14 93q1 5 0 11q0 35 -32 58q-37 27 -123 27q-23 4 -18 28q4 29 32 29q61 -2 453 -2q152 0 233.5 -18.5t151.5 -67.5q141 -101 141 -281q0 -147 -101 -265t-259 -154q-117 -27 -208 -27q-55 0 -101 10 q-18 8 -13.5 27.5t21.5 17.5q29 -4 58 -4q86 0 164 32q105 42 167 134q80 119 80 258q0 94 -41 161.5t-111 90.5q-63 20 -254 20q-33 0 -41 -32l-209 -996q-8 -40 -8 -71q0 -42 16 -67q28 -42 132 -42q41 0 43 -12q2 -6 -4 -21q-8 -20 -21 -20q-158 7 -293 7t-248 -7 q-15 0 -15 16q0 4 1 8z" />
<glyph unicode="Q" horiz-adv-x="1634" d="M127 588q0 311 238.5 539.5t572.5 228.5q289 0 472 -177.5t183 -445.5q0 -276 -170 -488t-452 -268q-29 -6 -13 -20q23 -14 54 -35q285 -199 360 -219q48 -12 90 -12q61 0 111 24q10 8 20.5 1t13.5 -18q1 -5 1 -9q0 -5 -2 -8q-111 -94 -248 -95q-78 0 -177.5 41t-168 86 t-177 122t-145.5 102q-47 39 -65 40q-215 45 -356.5 220.5t-141.5 390.5zM330 535q0 -233 125 -372.5t338 -139.5q268 0 433 220t165 552q0 225 -117 363t-318 138q-227 0 -387 -159q-111 -113 -175 -275t-64 -327z" />
<glyph unicode="R" horiz-adv-x="1277" d="M2 27q8 25 23 22h16q104 0 145 35t66 147l184 861q8 40 8 70q0 38 -12 62q-22 44 -119 44q-16 0 -24 1t-16.5 8t-6.5 19q4 29 35 29q47 -2 541 -2q180 -2 290.5 -91t110.5 -237q0 -143 -102.5 -245.5t-276.5 -139.5q-20 -4 -10 -20q23 -33 47 -82q53 -121 96 -207 q63 -125 168 -207q80 -63 178 -63q13 0 13 -14q0 -20 -10 -25q-43 -16 -72 -17q-160 0 -255 40t-173 161q-18 31 -34.5 68t-35 85t-26.5 70q-45 106 -80 176q-76 -6 -135 -6q-25 0 -33 -30l-64 -310q-9 -43 -9 -75q1 -41 15 -65q26 -42 134 -42q29 0 37 -6t-1 -31 q-4 -14 -30 -14q-170 6 -313 6t-259 -6q-13 -1 -13 13q0 7 3 18zM526 651q-2 -6 8.5 -13t22.5 -7q133 0 188 16q51 12 132 62q78 45 128 137q45 84 45 174v18q-5 100 -79 160q-76 61 -273 62q-20 0 -34.5 -12.5t-16.5 -24.5z" />
<glyph unicode="S" horiz-adv-x="1058" d="M31 116q-1 10 -1 16t1 9l65 260q2 12 14.5 16.5t22.5 -0.5t8 -18q0 -14 -1 -27.5t-1 -19.5q0 -156 90 -241.5t263 -85.5q150 0 233.5 66.5t83.5 176.5q0 80 -56.5 150.5t-136 128t-160.5 118t-137.5 144.5t-56.5 182q0 145 116 245.5t294 100.5q47 0 131 -20.5t125 -20.5 q37 0 65 29q6 14 31 10q10 -2 16 -5q4 -2 4 -5v-2q-25 -131 -47 -348q0 -12 -24.5 -12t-24.5 12q0 301 -276 301q-123 0 -192.5 -56.5t-69.5 -148.5q0 -88 74.5 -170t198.5 -169t163 -126q119 -119 119 -262q0 -170 -131.5 -275.5t-350.5 -105.5t-444 129q-6 4 -8 24z" />
<glyph unicode="T" horiz-adv-x="1290" d="M147 1038q59 225 74 342q4 10 25 11q18 0 20 -11q29 -35 55.5 -46t88.5 -11h817q111 0 150.5 10t80.5 49q6 10 25 11q8 -1 15 -5q5 -4 5 -6l-71 -350q-4 -14 -26 -14t-24 14q0 63 -2 90q-8 51 -18 72q-29 59 -139 59h-265q-27 -4 -34 -32l-209 -992q-10 -48 -10 -81 t10 -51q20 -36 100 -42q23 -2 84 -2q18 0 14 -26q-4 -31 -24 -31q-148 4 -299.5 4t-306.5 -4q-23 0 -11 31q8 27 27 26q45 0 66 2q80 4 110.5 39t52.5 137l213 979q8 43 -26 43h-195q-154 0 -213 -47q-37 -29 -58.5 -65.5t-55.5 -112.5q-6 -18 -29 -14q-19 6 -19 17q0 3 2 7 z" />
<glyph unicode="U" horiz-adv-x="1515" d="M121 1303q8 27 29 22q128 -6 264 -6t280 6q12 0 19.5 -8t5.5 -19q0 -33 -37 -28h-22q-86 0 -118 -29q-36 -33 -61 -151l-116 -545q-25 -117 -25 -203q0 -145 102.5 -231t284.5 -86q236 0 352.5 124.5t159.5 354.5l104 555q9 44 9 78q0 58 -25 88q-39 47 -164 47 q-14 0 -10 28q4 12 9 19.5t12 5.5q147 -3 251 -3q139 0 203 5h2q17 0 17 -31q-6 -29 -29 -24q-96 -12 -137 -53t-66 -175l-104 -561q-29 -154 -92 -260q-158 -260 -527 -260q-178 0 -290.5 50t-182.5 157q-57 88 -61 188q-1 13 -1 26q0 86 23 169l113 528q10 55 12 97v6 q1 38 -29 62q-32 26 -102 26h-35q-8 0 -14 10q-5 8 -5 16q0 2 1 5z" />
<glyph unicode="V" horiz-adv-x="1308" d="M111 1280q-1 7 -1 14q0 19 13 29q4 2 8 2q169 -4 302 -4t229 4q16 0 8 -29q-6 -27 -25 -26q-6 0 -40 1t-48 -3q-94 -16 -104 -176l-52 -861q-2 -27 4.5 -30.5t26.5 18.5l713 840q82 94 82 143q0 29 -16.5 44.5t-31 17.5t-46.5 4q-27 4 -37 6q-18 0 -19 26q4 25 23 25 q105 -3 207.5 -3t203.5 3q7 -1 11 -13l2 -8q0 -8 -4 -17q-6 -13 -19 -13q-63 -20 -113.5 -62.5t-123.5 -128.5l-961 -1116q-8 -12 -51 -12q-14 0 -24.5 10t-10.5 25l55 1102q1 16 1 31q-1 68 -23 104q-28 43 -117 43h-10q-8 -2 -12 10z" />
<glyph unicode="W" horiz-adv-x="1826" d="M94 1303q4 22 23 22h2q114 -4 236 -4t253 4h3q9 0 13 -7q6 -9 3 -22q-2 -8 -9.5 -17t-13.5 -9q-102 -12 -131 -45t-41 -150l-84 -809q-4 -27 1 -33t26 17l645 827v76q0 72 -27.5 92.5t-126.5 24.5q-10 0 -12 13t3 27.5t13 14.5q123 -4 251 -4t261 4q10 0 10.5 -13.5 t-7 -27.5t-13.5 -14q-113 -12 -136.5 -36t-31.5 -132l-59 -836q-2 -25 4 -30t22 18l572 811q60 84 60 134q0 46 -52 63q-29 8 -88 8q-8 0 -14.5 9t-3.5 19q6 27 24 27q142 -3 242.5 -3t159.5 3q12 0 12 -10q0 -6 -4 -15q-4 -27 -19 -26q-51 -12 -97 -51t-108 -125 l-794 -1104q-18 -25 -43 -25q-37 0 -41 2q-25 10 -25 19l66 930q0 37 -21 16l-737 -946q-20 -20 -31 -21q-16 -4 -29 -4q-9 0 -16 2q-23 10 -22 21l94 1122q2 14 2 39q0 70 -19.5 92.5t-56.5 24.5q-43 0 -69 6q-20 0 -20 20q0 5 1 11z" />
<glyph unicode="X" horiz-adv-x="1441" d="M-25 18q4 27 17 27q123 16 154.5 32.5t119.5 104.5l477 477q12 20 9 41l-252 463q-35 63 -83 85t-157 26q-10 0 -10 29q6 20 22 20q131 -3 272.5 -3t293.5 3q23 0 18.5 -24.5t-16.5 -24.5q-88 -2 -119 -13.5t-31 -46.5q0 -20 29 -73l158 -314q10 -12 13 -11t19 13 l283 293q53 53 53 88q0 33 -31.5 47.5t-117.5 16.5q-20 -2 -13 26q6 23 19 23q140 -4 263 -4t228 4q8 0 12.5 -1t6.5 -4t2 -4v-9q-4 -27 -21 -27q-98 -12 -171.5 -50t-153.5 -120l-332 -342q-16 -12 -6 -33l280 -518q55 -102 96.5 -132t139.5 -44q8 -2 8 -12.5t-6 -20.5 t-10 -10q-135 4 -264 4t-252 -4h-4q-29 0 -23 29q2 6 7 13t11 5q41 2 63.5 4t46.5 9t31 19.5t4 34t-20 54.5l-223 420q-25 37 -43 16l-364 -367q-68 -69 -75 -109q-1 -6 -1 -12q0 -32 32 -46q38 -18 121 -23q6 -2 6.5 -14.5t-5 -22.5t-11.5 -10q-229 4 -355 4q-84 0 -124 -2 q-14 -2 -18 4q-3 4 -4 10q0 3 1 6z" />
<glyph unicode="Y" horiz-adv-x="1308" d="M211 1300q4 23 22 23q97 -5 207 -5t232 5q23 -4 14 -25q-4 -25 -12 -24q-70 -6 -92 -14q-22 -9 -22 -40q0 -30 30 -98l209 -477q6 -16 8 -18t24 18l377 438q80 92 80 125q0 59 -127 66q-8 4 -8 15t7 23q6 11 15 11h3q104 -5 194 -5t168 5q8 0 16 -4q5 -3 5 -9 q0 -17 -13 -30q-68 -27 -102.5 -50.5t-93.5 -94.5l-521 -598l-63 -308q-9 -45 -9 -77q0 -40 13 -60q24 -35 120 -35h11q49 0 58 -2q14 -2 5.5 -30.5t-16.5 -28.5q-146 4 -300 4t-318 -4q-8 4 -8 16.5t7 27.5t17 15q129 6 164 29q47 33 72 147l65 308l-258 587 q-37 86 -69.5 115t-90.5 33q-21 0 -21 16q0 5 1 10z" />
<glyph unicode="Z" horiz-adv-x="1406" d="M4 43q152 147 1196 1186q16 20 12 23t-24 3h-397q-158 0 -250 -66.5t-152 -223.5q-2 -6 -27 -11q-25 0 -24 13q4 16 26.5 96t38 140.5t19.5 94.5q6 25 41 25q164 -3 411.5 -3t579.5 3h7q23 0 29 -11q3 -6 3 -15q0 -10 -4 -23q-356 -342 -1198 -1184q-10 -10 -11 -14t4 -6 t19 -4h539q102 0 164.5 20t117.5 68q78 70 166 217q18 14 33 10q16 -6 10 -25q-20 -59 -90 -321q-8 -39 -47 -39q-289 4 -586.5 4t-603.5 -4q-7 4 -7 19q0 23 5 28z" />
<glyph unicode="[" horiz-adv-x="628" d="M121 -467l371 1862h397l-10 -45h-191q-41 0 -57.5 -15.5t-26.5 -60.5l-321 -1618q-6 -25 -7 -39q0 -41 103 -41h147l-8 -43h-397z" />
<glyph unicode="\" horiz-adv-x="456" d="M152 1356h139l182 -1389h-139z" />
<glyph unicode="]" horiz-adv-x="628" d="M-84 -467l8 45h193q41 0 59.5 16.5t26.5 61.5l321 1616q4 29 4 41q0 39 -104 39h-145l8 43h399l-373 -1862h-397z" />
<glyph unicode="^" horiz-adv-x="888" d="M111 684l444 750h33l438 -750h-104l-353 600l-354 -600h-104z" />
<glyph unicode="_" horiz-adv-x="1042" d="M-18 -428l2 10l4 10q0 37 41 37q989 0 1001 2q25 -6 29 -18q6 -12 2 -21.5t-4 -23.5q-12 -25 -29 -23h-1018q-12 -2 -21 5.5t-7 21.5z" />
<glyph unicode="`" horiz-adv-x="694" d="M349 1339.5q5 6.5 16 6.5h151q20 0 25 -7v-2q2 -2 2 -4l98 -311q2 -4 -1 -7t-11 -3q-16 0 -25 8l-252 299q-8 14 -3 20.5z" />
<glyph unicode="a" horiz-adv-x="851" d="M76 199q0 158 108.5 325.5t274.5 263.5q145 84 332 89q10 0 12 -19l-121 -612l-4 -19q-4 -18 -8 -36.5t-6 -38t2 -30.5t14 -9q27 4 84 69q12 14 27 29q16 16 24 -6q2 -7 2 -14q0 -11 -6 -21q-82 -90 -104 -113q-86 -82 -125 -82q-62 0 -62 100v13q2 57 21 137 q4 18 -3.5 19.5t-19.5 -13.5q-246 -256 -315 -256q-51 0 -89 68t-38 156zM213 242q0 -63 19.5 -105.5t43.5 -42.5q29 0 285 242l80 395q5 8 5 15q0 4 -1 6q-2 9 -12 8h-4q-125 -14 -221 -80q-88 -59 -141.5 -180t-53.5 -258z" />
<glyph unicode="b" horiz-adv-x="849" d="M139 293q10 55 90 470t131 636q6 23 -10 22.5t-78 -35.5q-29 -12 -31.5 8.5t13.5 28.5l178 105q43 26 63 26q7 0 11 -2q12 -6 12 -31q0 -13 -4 -32l-176 -875q-4 -20 2 -23t16 7q4 4 31 34t44.5 49t49 53t55 55.5t51 45t50 35t39.5 11.5q26 -1 55 -52q51 -87 57 -205 q1 -18 1 -35q0 -99 -31 -193q-37 -110 -98.5 -207t-149.5 -155.5t-180 -58.5q-139 -1 -178 91q-23 55 -23 126q0 47 10 101zM276 291q-14 -73 -14 -125q0 -137 96 -137q84 0 155 100t103.5 216t32.5 196q0 96 -19.5 155.5t-47.5 59.5q-41 0 -140 -107q-29 -31 -110 -127 q-12 -14 -15 -24q0 -6 -2 -15z" />
<glyph unicode="c" horiz-adv-x="614" d="M72 201q0 125 56 278.5t168 276.5t241 123q49 0 79.5 -21.5t30.5 -60.5q0 -31 -16.5 -51.5t-42.5 -20.5q-37 0 -101 37q-33 16 -55 16q-70 0 -129 -145q-14 -35 -27.5 -79t-33.5 -112q-19 -68 -25 -128q-4 -40 -4 -78q0 -18 1 -38q3 -56 31.5 -89t80.5 -33q98 0 204 127 q2 6 13.5 4t15.5 -8q20 -14 14 -33q-76 -88 -162.5 -139.5t-156.5 -51.5q-82 0 -132 62.5t-50 163.5z" />
<glyph unicode="d" horiz-adv-x="921" d="M100 233q0 164 86 325t230 265q62 47 124 55l18 2q53 0 104 -44q8 -10 16 3t12 33l101 517q6 31 -2.5 33.5t-30.5 -11.5q-18 -8 -52 -29.5t-53 -29.5q-18 -12 -24 14q-4 31 14 37l219 121q34 19 53 19q26 0 26 -34q0 -11 -3 -26l-252 -1327q-10 -47 6 -47q31 0 119 124 q6 10 20 0q18 -18 9 -34q-59 -92 -136 -158t-122 -66q-47 0 -47 68q0 45 17 119t19 98q4 35 -12 10q-2 -4 -6 -10q-2 -2 -2 -4q-100 -127 -190.5 -204t-137.5 -77q-55 0 -89 73t-34 185zM258 129q18 -43 47 -43q35 0 115 82t174 215l59 307q-45 123 -129 123 q-78 0 -164 -147q-120 -207 -120 -417q0 -77 18 -120z" />
<glyph unicode="e" horiz-adv-x="745" d="M78 270q0 233 143.5 423t321.5 190q80 0 126 -40t46 -110q0 -150 -180 -241q-55 -31 -158 -62q-29 -8 -69 -19.5t-54 -15.5q-23 -10 -23 -24q-10 -49 -10 -109q0 -92 45 -146q43 -51 109 -50h8q90 2 233 114q18 16 27 -6q12 -23 -2 -43q-88 -76 -184.5 -116t-167.5 -40 q-88 0 -149.5 85t-61.5 210zM258 481q0 -8 7 -11q3 -1 7 -1q8 0 19 4q113 27 192 66q115 59 123 170q1 6 1 12q-1 39 -23 67q-24 30 -66 29h-6q-109 -4 -164 -102q-47 -88 -49 -94q-41 -92 -41 -140z" />
<glyph unicode="f" horiz-adv-x="579" d="M-365 -449q9 59 69 59q7 0 15 -1q20 -2 54 -31l9 -9t8 -9t8 -9.5t9.5 -8.5t9.5 -7t10 -7t10 -5t12.5 -5t12.5 -2t13 -1q45 0 90 33.5t72 84.5q23 43 47 158q23 98 49 242q18 94 123 715q6 27 -10 26h-109q-6 -2 -8 5t0 16q4 29 18 28q55 8 72 13q8 2 26.5 8t28.5 8 q35 184 70 289q57 172 133 262q120 149 277 149h2q61 0 108 -34q45 -32 45 -74q0 -63 -70 -63q-9 0 -18 1q-29 4 -72.5 45t-89.5 41q-66 0 -114 -75q-49 -74 -94 -326l-35 -197q0 -14 14 -16h129q14 0 6 -39q-14 -41 -28 -41h-125q-8 -2 -17 -14l-92 -533 q-20 -127 -36.5 -198.5t-51.5 -184t-90 -194.5t-131 -137q-100 -74 -203 -74q-66 0 -115 36q-42 31 -42 65q0 5 1 11z" />
<glyph unicode="g" horiz-adv-x="815" d="M-170 -383q0 72 123 154q92 63 250 147q-20 32 -20 63q0 61 77 115q14 8 0 17q-72 43 -113 119.5t-41 166.5q0 94 65 202t167 192q106 88 217 88h14q39 -2 128 -10.5t108 -8.5q20 0 24 -61q0 -27 -5 -41.5t-17 -9.5l-86 10q-8 2 -12 -2t-2 -10q37 -98 36 -179 q0 -86 -37.5 -170t-101.5 -139q-102 -88 -246 -154q-75 -35 -75 -66q0 -24 30.5 -53.5t112.5 -84.5q141 -94 196.5 -151.5t55.5 -104.5q0 -92 -129 -150.5t-324 -58.5q-172 0 -283.5 50t-111.5 130zM-41 -362q0 -68 75 -113t193 -45q145 0 235.5 34t90.5 85q0 35 -68 82 q-139 102 -245 196q-10 6 -23 0q-137 -78 -197.5 -132t-60.5 -107zM250 381q0 -86 38 -146.5t89 -60.5q63 0 127 92q92 133 92 330q0 98 -34 157.5t-87 59.5q-66 0 -120 -85t-79.5 -182t-25.5 -165z" />
<glyph unicode="h" horiz-adv-x="935" d="M106 29l267 1347q8 37 -6.5 37t-106.5 -51q-14 -12 -20 10q-8 27 4 33l207 119q39 22 59 22h2q12 0 19.5 -5t8.5 -9t0 -17.5t-1 -15.5l-199 -995q-4 -23 -1 -26t15 16q272 383 410 383q84 0 83 -116q0 -57 -20 -143l-120 -471q-16 -51 6 -51q29 0 161 148q8 6 16.5 -1 t10.5 -19q1 -6 1 -10t-1 -7q-74 -98 -154.5 -165t-125.5 -67q-33 0 -47 27q-13 24 -13 58v10q2 41 7 68.5t12 51.5l108 426q20 72 20 112q0 48 -30 48q-39 0 -163 -154.5t-208 -275.5q-55 -270 -57 -278q-2 -6 -4 -22.5t-4 -24t-7.5 -17.5t-14.5 -14t-23 -4h-78 q-18 -1 -18 18q0 10 5 25z" />
<glyph unicode="i" horiz-adv-x="522" d="M113 641q-4 9 -4 16q0 9 6 17q172 205 256 205q44 0 44 -60q0 -27 -9 -65l-121 -594q-8 -47 -2 -51q4 -4 16 -5q25 0 125 119q12 20 27 -4q14 -29 4 -39q-47 -61 -128 -132t-134 -71q-60 1 -60 87q0 31 8 73l109 520q0 2 3 11.5t4 18.5t2 19.5t0 16.5t-7 8h-3 q-17 0 -59 -45q-51 -55 -53 -57q-10 -14 -24 12zM348 1206q10 49 37 81t57 32q50 -2 50 -74q0 -18 -3 -41q-8 -55 -34.5 -91t-61.5 -36q-54 0 -54 65q0 27 9 64z" />
<glyph unicode="j" horiz-adv-x="501" d="M-297 -451q4 31 21.5 47.5t48.5 12.5q33 -4 59 -39l39 -45q29 -21 54 -21q32 0 57 34q45 59 77 183q10 37 20.5 88.5t14.5 67.5l189 799q10 35 -9 41q-1 1 -3 1q-13 0 -54 -38q-12 -12 -29.5 -30.5t-19.5 -20.5q-10 -8 -20.5 -2t-12.5 16t4 16q76 96 143.5 149.5 t108.5 53.5q48 0 48 -68q0 -38 -15 -96l-166 -692q-57 -246 -166 -393q-121 -170 -264 -170q-59 0 -94 35q-31 31 -31 64v7zM383 1208q20 115 94 117h4q47 0 55 -46q3 -17 3 -33q0 -27 -9 -48q-20 -117 -94 -117q-58 2 -58 76q0 22 5 51z" />
<glyph unicode="k" horiz-adv-x="940" d="M109 2q0 4 2 11t2 10l274 1368q6 27 0 28.5t-33 -14.5q-12 -6 -34.5 -19.5l-32.5 -19.5q-12 -12 -23 14q-14 27 6 33l207 121q28 21 49 21q4 -1 8 -1q24 -4 13 -55l-187 -903q-6 -27 -5 -29t26 19q315 293 418 293q49 0 86 -53.5t41 -123.5q1 -12 1 -23q1 -123 -99 -191 q-98 -67 -302 -67q-22 0 -45 1q80 -84 107 -123l47 -70q41 -59 86 -96q39 -32 69 -32q5 0 9 1q25 23 86 91q10 10 19 3.5t15.5 -19.5t2.5 -19q-88 -113 -170 -178q-49 0 -82 24q-98 66 -191 215q-84 131 -135 184q-18 18 -25 -22l-69 -361q-6 -31 -13.5 -35.5t-27.5 -4.5 q-57 0 -84 2q-6 0 -10 3t-5 8t-1 9zM336 472q2 -3 6 -6t4 -5q25 0 73 1h30q27 0 45 -1h16q71 0 137 16q164 39 164 203q0 39 -24.5 67.5t-59.5 28.5q-41 0 -155.5 -87t-235.5 -212q-1 -1 -1 -2t1 -3z" />
<glyph unicode="l" horiz-adv-x="524" d="M139 152l244 1224q8 39 -12 39q-10 0 -113 -57q-29 -8 -35 12q-8 27 13 31l198 117q27 16 43.5 23t36.5 10h6q16 0 22 -14q3 -8 3 -20q0 -14 -4 -34l-271 -1358q-12 -53 11 -53q37 0 147 125q2 4 11.5 5t15.5 -5q12 -8 2 -33q-162 -190 -254 -191q-73 0 -73 99q0 34 9 80 z" />
<glyph unicode="m" horiz-adv-x="1380" d="M96 621q63 98 153.5 177t129.5 79q38 0 38 -50q0 -14 -3 -32l-62 -308q-4 -18 2 -18q2 0 6 8q276 399 420 400q29 0 45.5 -26t16.5 -69q0 -35 -4 -72.5t-9.5 -62t-14.5 -68.5t-13 -67q-10 -55 6 -31q4 6 34.5 54.5t54.5 82t64.5 86t77.5 86t82 58t86 24.5q60 0 60 -91 q0 -36 -9 -85l-114 -561q-2 -9 -2 -14q0 -13 9 -13q10 0 30 17q29 23 41 41q33 37 61 74q19 22 33 4q5 -9 5 -18q0 -11 -7 -21q-72 -100 -149 -165t-117 -65q-54 0 -54 69q0 23 6 54q61 301 121 617q8 35 4 45t-22 10q-39 0 -142.5 -143.5t-158.5 -237.5q-41 -70 -60 -153 l-43 -216q-10 -43 -32 -43h-80q-23 0 -27 12.5t2 28.5l137 695q14 55 -10 55q-55 0 -162.5 -140.5t-173.5 -246.5q-31 -51 -63 -209q-4 -18 -13.5 -73.5t-15.5 -84.5q-4 -20 -11 -27t-28 -7q-10 0 -33.5 -1.5t-33.5 -1.5q-41 0 -33 41l131 662q10 41 -4 41q-10 0 -45 -36 t-49 -56q-18 -25 -23 -29q-6 -6 -16.5 -7t-16.5 5q-4 4 -4 11q0 5 2 12z" />
<glyph unicode="n" horiz-adv-x="960" d="M100 582q-6 12 -6 22.5t6 18.5q190 256 260 256h2q36 -1 36 -57q0 -20 -5 -48q-37 -195 -63 -315l-2 -21q2 2 12 15q10 12 61.5 81.5t89 115.5t92 105.5t103.5 91.5t90 32q86 0 86 -127q0 -59 -16 -125l-123 -473q-13 -44 -12 -65q0 -17 8 -19h2q19 0 92 80q51 59 78 92 q19 20 29 10q4 -6 7 -10t3 -9.5v-7.5t-3 -7t-4 -7t-6.5 -9t-7.5 -9q-74 -100 -149.5 -159t-124.5 -59q-66 0 -66 80q0 33 11 80l133 533q9 35 9 57q0 41 -30 41q-14 0 -33.5 -12.5t-44 -35t-48 -48t-53.5 -61.5t-52.5 -65.5t-50 -67.5t-44 -60.5t-38 -52t-25.5 -35.5 l-63 -312q-4 -27 -12.5 -33t-32.5 -6h-58q-36 0 -36 24q0 7 3 17l132 658q0 27 -7 26q-4 0 -8 -2q-10 -6 -47 -53t-51 -67q-4 -4 -12.5 -3t-10.5 5z" />
<glyph unicode="o" horiz-adv-x="815" d="M78 317.5q0 131.5 73.5 256t206.5 214.5q131 90 213 91q72 0 133.5 -97.5t61.5 -220.5q0 -195 -113 -342q-47 -61 -121.5 -120.5t-148.5 -90.5q-72 -33 -115 -33q-70 0 -130 105.5t-60 237zM223 309q0 -102 41 -175t96 -73q102 0 183.5 144t81.5 330q0 109 -46.5 181 t-111.5 72q-96 0 -170 -144t-74 -335z" />
<glyph unicode="p" horiz-adv-x="911" d="M-129 -522q4 6 47 12q41 6 66.5 16.5t39 35t18.5 42t13 58.5q35 178 205 991l2 8q2 8 3 14.5t3 16.5t2 18v15.5t-1 11.5t-5 4q-27 0 -84 -66q-18 -20 -43.5 -52t-27.5 -34q-8 -12 -24.5 4.5t-2.5 36.5q76 113 166 191t135 78q39 0 39 -64q0 -59 -27 -197q-8 -45 -2 -45 q2 2 13 19q2 4 4 6t40.5 59.5t57 79t56.5 63.5t72 59.5t69 17.5q70 0 106.5 -100.5t36.5 -211.5q0 -102 -47 -218t-123 -208t-184 -137q-63 -26 -126 -26q-46 0 -92 14q-6 2 -9 -5.5t-3 -13.5q-57 -252 -74 -333q-7 -39 -7 -66q0 -43 17 -58q29 -24 150 -28q14 0 8 -27 q-5 -20 -22 -20h-4q-112 5 -226.5 5t-232.5 -5q-9 2 -9 13q0 14 7 26zM293 102q0 -31 12 -39q42 -28 72 -28h2q127 0 228.5 159.5t101.5 362.5q0 90 -22.5 148.5t-57.5 58.5q-33 0 -125 -121q-72 -94 -144 -207z" />
<glyph unicode="q" horiz-adv-x="872" d="M106 217q0 197 170 395q221 266 519 267q41 -1 41 -35q0 -7 -2 -15l-234 -1136q-23 -119 -22 -133q0 -18 4 -30.5t14 -21t18.5 -12.5t25.5 -6t25.5 -2h29h26.5q10 2 14 -5t2 -20q-3 -25 -20 -25q-4 0 -8 1q-122 3 -236.5 3t-220.5 -3q-12 2 -12 15.5t9 24.5t19 9 q104 10 134 30.5t44 92.5q27 133 121 579q14 51 4 54q-2 0 -6 -4q-63 -78 -169.5 -171.5t-162.5 -93.5q-51 0 -89 74t-38 168zM248 250q0 -158 69 -158q29 0 91.5 56.5t193.5 199.5l74 381q1 5 1 10q0 19 -15 19q-145 -8 -234 -80q-82 -66 -131 -184.5t-49 -243.5z" />
<glyph unicode="r" horiz-adv-x="661" d="M80 606q-7 9 -7 18q0 10 9 19q188 233 246 234q39 0 43 -60v-7q0 -24 -9 -85q-12 -86 -32 -184q-10 -59 -21 -95q-12 -48 -12 -60q0 -4 2 -3q4 0 18 43q164 451 306 451q69 0 75 -68q1 -10 0 -19q0 -49 -18 -75q-15 -21 -40 -21q-12 0 -26 4l-36 13q-82 -12 -160 -166 q-20 -41 -101 -250q-18 -45 -29.5 -88t-24.5 -105.5t-19 -89.5q-8 -37 -45 -37h-56q-33 0 -24 48l108 643q8 55 -14 55q-12 0 -50 -44t-50 -63q-23 -23 -33 -8z" />
<glyph unicode="s" horiz-adv-x="655" d="M29 76q6 62 54 68q8 1 16 1q38 0 69 -26q6 -4 27.5 -17.5t32 -19.5t28.5 -14.5t34.5 -12.5t33.5 -4q47 0 78.5 31t31.5 76q0 27 -10 55.5t-32.5 61t-37 51t-47.5 55.5t-37 43q-78 93 -78 173q0 84 91 179q102 102 204 103q53 0 103.5 -47.5t50.5 -96.5q0 -29 -17.5 -50 t-43.5 -21q-35 0 -58 43q-59 100 -104 100q-43 0 -84 -47t-41 -92q0 -20 9 -44t28.5 -50.5t35 -45t40 -46t30.5 -36.5q90 -104 90 -200q0 -123 -91 -197t-242 -74q-78 0 -124 27q-41 24 -41 63q0 6 1 11z" />
<glyph unicode="t" horiz-adv-x="577" d="M121 61q0 72 43 250q18 78 102 416q0 2 2 8q10 39 -14 39h-78q-18 0 -21 14.5t11 20.5q109 55 178.5 130t142.5 194q5 8 15 13q6 3 12 3q3 0 6 -1q8 -3 8 -18q-92 -223 -98 -258q-2 -8 5 -12t18 -2h131q11 0 11 -19q0 -10 -3 -24q-4 -18 -10.5 -30.5t-16.5 -10.5h-135 q-18 -6 -18 -8l-4 -10l-142 -621q-6 -22 -6 -37q0 -26 19 -26q47 0 194 155q14 16 29 -10q10 -20 0 -31q-195 -211 -305 -211q-35 0 -55.5 22.5t-20.5 63.5z" />
<glyph unicode="u" horiz-adv-x="997" d="M129 614q-1 4 -1 7q0 7 3 12q41 61 126 151t130 90q46 0 46 -66q0 -32 -11 -79l-100 -504q-6 -33 -8.5 -53t1.5 -38.5t23.5 -13.5t54.5 36q74 68 179.5 223.5t134.5 247.5q18 55 45 221q6 33 45 33q27 -2 63 0q33 0 33 -34q0 -8 -2 -18l-129 -659q-3 -15 -3 -24 q0 -17 9 -17q7 0 18 8q14 10 35 33q55 59 76 86q10 16 25 -4q7 -11 7 -21q0 -4 -1 -8q-78 -98 -161 -173t-116 -75q-43 0 -43 64q0 133 66 381q6 23 -2 20q-8 -2 -21 -22q-125 -193 -241.5 -318t-182.5 -125q-61 0 -61 110q0 56 16 142l92 463q8 37 0 37q-12 0 -29.5 -15.5 t-30.5 -32.5t-30.5 -41t-21.5 -28q-10 -12 -20.5 -10t-12.5 14z" />
<glyph unicode="v" horiz-adv-x="831" d="M80 610q-2 5 -2 8q0 7 4 13q176 246 262 246q47 0 47 -74q0 -41 -14 -127l-80 -494q0 -2 -3 -17t-3 -27.5t-1 -27t4 -22.5t13 -8q66 0 163 125t166 274.5t69 220.5q0 27 -25 41q-27 14 -27 39q0 33 37 66t70 33q41 0 67.5 -37t26.5 -94q0 -106 -121 -294t-274.5 -333.5 t-237.5 -145.5q-57 0 -57 125q0 67 16 170l62 379q6 44 6 66t-6 22q-25 0 -129 -137q-8 -10 -18.5 -6t-14.5 16z" />
<glyph unicode="w" horiz-adv-x="1249" d="M72 623q31 45 69.5 94t100 105.5t98.5 56.5q43 0 43 -85q0 -40 -10 -100l-74 -499q-4 -35 -3 -59q0 -52 17 -52q49 0 176 158.5t187 261.5l51 334q4 37 43 36q23 2 49 3q38 0 38 -30q0 -5 -1 -11l-100 -652q0 -2 -3 -17t-3 -27.5t-1 -27t4 -22.5t13 -8q53 0 144 110.5 t164 259t73 240.5q0 29 -23 51q-25 18 -24 39q0 41 29.5 68t70.5 27q39 0 64.5 -35t25.5 -86q0 -141 -157.5 -366.5t-298.5 -338.5q-27 -20 -58 -39q-30 -18 -70 -32q-16 -6 -31 -7q-20 1 -35 13q-26 20 -26 77q0 76 17 164q4 20 8 43t6 40.5t4 33.5q4 23 2 23q-4 0 -26 -37 q-70 -113 -192 -233t-206 -120q-68 0 -68 108q0 15 1 32q4 59 12 114q49 317 68 471q4 23 -1.5 26t-21.5 -11q-31 -25 -113 -131q-12 -14 -32 3q-10 9 -9 17q0 9 9 17z" />
<glyph unicode="x" horiz-adv-x="1032" d="M92 227q18 47 33 47q10 -2 14 -30q10 -63 17 -80q12 -29 32.5 -36t47 5t49 27.5t50 44t39 42t25.5 29.5l88 111q6 16 2 29l-100 252q-23 55 -37 75.5t-35 20.5q-27 0 -54 -32t-85 -128q-14 -27 -32.5 -12.5t-6.5 37.5q84 143 133.5 196.5t100.5 53.5q45 0 73.5 -35 t65.5 -129l68 -178q6 -10 14 -5t18 19q150 207 211 268q39 39 89 53q17 5 31 4q31 0 55 -18q36 -26 36 -92q0 -33 -18 -98q-6 -23 -13.5 -27t-12.5 4t-9 23q-16 84 -86 84q-76 0 -168 -129l-102 -144q-14 -16 -7 -33l78 -208q29 -76 47.5 -104t38.5 -28q53 2 119 142 q12 29 29 12q12 -8 12 -41q-66 -147 -115 -195.5t-104 -48.5q-43 0 -62.5 27t-60.5 127l-76 190q-8 18 -24 -2l-74 -90q-207 -252 -311 -252q-64 0 -64 78q0 62 41 174z" />
<glyph unicode="y" horiz-adv-x="894" d="M-42 -538q3 24 26 24q92 4 114.5 13t46.5 59q113 227 160 356q61 170 66 225q5 69 5 140q0 134 -18 271q-26 210 -82 210q-35 0 -102 -94q-6 -8 -18.5 -25.5t-18.5 -26.5q-12 -16 -28 7q-12 18 -3 34q150 221 230 222q90 0 123 -273q23 -187 23 -335q0 -67 -5 -126 q-2 -23 1 -27.5t8.5 1.5t15.5 22q257 433 257 561q0 7 -1 13q-2 8 -17 39q-12 25 -12 36q0 37 25.5 64t60.5 27q39 0 63.5 -31t24.5 -80q0 -72 -72 -205q-33 -57 -178 -270q-115 -166 -151 -246q-35 -78 -97.5 -230.5t-95.5 -226.5q-24 -49 -24 -72q0 -8 3 -13 q11 -19 97 -19h13t12.5 -2t9.5 -8t0 -15q-8 -26 -28 -26h-1q-113 6 -230 6q-95 0 -192 -4q-12 0 -12 17q0 3 1 8z" />
<glyph unicode="z" horiz-adv-x="999" d="M35 14q0 53 67 144q129 170 521 377q119 61 174 98q61 39 88 65q20 20 14 23.5t-25 -8.5q-102 -49 -192 -49q-60 0 -115 22q-25 10 -69.5 33.5t-82.5 38t-75 14.5q-41 0 -67.5 -21.5t-75.5 -84.5q-4 -8 -17.5 -6t-19.5 10t2 20q139 184 274 184q82 0 197 -67 q6 -4 26.5 -15.5t28.5 -15.5t26.5 -13t30 -12t27.5 -6.5t33 -2.5q100 0 119 83q6 27 6 29q10 16 37 16q34 0 34 -39q0 -94 -128 -211.5t-238 -175.5q-31 -16 -114 -56t-128 -64q-135 -72 -205 -136q-14 -14 -10 -18q4 -2 19 6q78 39 151 39q84 0 195 -63q109 -63 159 -64 q90 0 160 107q12 16 25.5 1.5t5.5 -26.5q-59 -88 -131 -140.5t-131 -52.5q-16 0 -33.5 4.5t-31 8.5t-34 15t-28.5 16.5t-30.5 19.5t-27.5 16q-131 78 -219 78q-63 0 -82.5 -20.5t-19.5 -57.5q0 -45 -4 -55q-10 -27 -51 -27q-35 0 -35 39z" />
<glyph unicode="{" horiz-adv-x="825" d="M129 457v22q0 12 14 15q96 23 153.5 80t57.5 128q0 55 -24.5 160t-24.5 160q0 158 109.5 273.5t281.5 136.5q20 2 21 -19q0 -27 -21 -33q-113 -20 -173 -83.5t-60 -157.5q0 -55 20.5 -164t20.5 -162q0 -135 -109 -244q-59 -59 -131 -90q-33 -14 4 -26q236 -117 236 -332 q0 -55 -20.5 -163t-20.5 -163q0 -186 231 -246q14 -4 18.5 -16t-0.5 -22.5t-16 -10.5q-172 23 -280.5 138.5t-108.5 271.5q0 53 23.5 156.5t23.5 156.5q0 76 -52 131.5t-150 79.5q-23 6 -23 23z" />
<glyph unicode="|" horiz-adv-x="1062" d="M471 -39v1770h119v-1770h-119z" />
<glyph unicode="}" horiz-adv-x="825" d="M103.5 -463q7.5 14 25.5 14q113 20 173 84t60 156q0 57 -20 166t-20 164q0 133 108 241q53 53 109 82q29 12 31.5 19.5t-19.5 19.5q-231 123 -232 330q0 31 21 158q23 117 22 164q0 186 -231 249q-16 8 -20.5 19.5t3 21t15.5 9.5q172 -25 280.5 -139.5t108.5 -270.5 q0 -53 -23.5 -157.5t-23.5 -157.5q0 -82 59.5 -139.5t167.5 -77.5q12 -6 16.5 -26t-14.5 -26q-106 -18 -166.5 -76.5t-60.5 -134.5h-2q0 -53 24.5 -157.5t24.5 -159.5q0 -158 -109.5 -274.5t-281.5 -137.5q-16 -2 -24.5 10.5t-1 26.5z" />
<glyph unicode="~" horiz-adv-x="1128" d="M188 502q2 135 81 228t190 93q59 0 116.5 -20.5t161.5 -79.5q139 -80 211 -80t118 45t54 129q6 18 30 17t26 -17q-4 -137 -79 -228t-184 -91q-102 0 -299 106q-143 80 -204 80q-70 0 -117 -50t-53 -132q-8 -12 -29 -12.5t-23 12.5z" />
<glyph unicode="&#xa1;" horiz-adv-x="608" d="M123 -420l252 912q8 20 22 20h11q18 -9 16 -29l-121 -903q-6 -45 -20.5 -61.5t-55.5 -16.5h-43q-47 0 -60 16.5t-1 61.5zM360 756q4 49 34 81.5t69 32.5q37 0 60.5 -28.5t23.5 -73.5q0 -53 -30 -89t-75 -36t-66.5 35t-15.5 78z" />
<glyph unicode="&#xa2;" horiz-adv-x="565" d="M86 195q0 180 98.5 374.5t229.5 268.5q14 8 20 43l76 417q2 20 20 19l11 -4q18 -4 16 -19l-74 -403q-6 -27 23 -21q12 2 35 2q113 0 112 -84q0 -31 -15 -51t-42 -20q-37 0 -100 37q-35 18 -41 -15l-119 -643q-4 -18 3 -24t23 -2q82 12 170 118q10 14 19 7l16 -13 q12 -10 2 -20q-115 -139 -231 -180q-25 -8 -27 -29l-73 -410q-6 -29 -27 -24l-10 2q-8 0 -12.5 4t-2.5 18l74 400q4 25 -18 28q-72 10 -114 69.5t-42 154.5zM227 217q0 -78 37 -119q10 -8 18.5 -2t10.5 19l110 608q5 19 3 25q-8 10 -21 0q-20 -18 -35 -48q-49 -80 -86 -228 t-37 -255z" />
<glyph unicode="&#xa3;" horiz-adv-x="1519" d="M98 -444q0 55 71 115.5t163 86.5q70 92 135 234q41 90 57 131h-278l12 61h289l14 37q131 344 268 621q141 283 277 436q137 156 305 156q78 0 130 -36t52 -89q0 -31 -21.5 -52.5t-53.5 -21.5q-12 0 -23.5 4t-18 7t-16.5 13.5t-13 14.5t-13.5 18.5t-12.5 16.5 q-33 45 -86 45q-94 0 -174 -121q-66 -102 -192 -402q-129 -303 -213 -483q-47 -102 -82 -164h342l-12 -61h-363q-70 -127 -137 -232q-27 -41 -84 -112q63 14 129 14q104 0 171.5 -21.5t186.5 -90.5q139 -84 232 -84q66 0 110.5 43t44.5 104q0 29 -14 61l-31 62 q-10 25 -10 45q0 29 19.5 51.5t46.5 22.5q41 0 66.5 -39t25.5 -101q0 -137 -100.5 -239.5t-233.5 -102.5q-127 0 -254 72q-20 12 -109 66q-141 88 -284 88h-33q-156 -227 -229 -228q-23 0 -39.5 15.5t-16.5 38.5z" />
<glyph unicode="&#xa4;" d="M203 266l131 133q-59 88 -77.5 145.5t-18.5 145.5t19 143.5t77 137.5l-131 129l82 84l131 -131q76 61 130 79.5t148 18.5t149.5 -18.5t133.5 -79.5l127 131l80 -84l-127 -129q59 -84 77.5 -141.5t18.5 -151.5t-19.5 -149.5t-76.5 -131.5l127 -131l-80 -82l-127 131 q-82 -61 -137.5 -80.5t-147.5 -19.5q-94 0 -147 19.5t-129 80.5l-131 -131zM354 684q0 -145 98.5 -247.5t239.5 -102.5q143 0 243.5 101.5t100.5 246.5t-99 247.5t-239 102.5q-143 0 -243.5 -101.5t-100.5 -246.5z" />
<glyph unicode="&#xa5;" horiz-adv-x="1042" d="M39 721l14 49q6 14 33 14h68.5h139.5h124q35 0 41 5.5t0 27.5l-45 170q-6 27 -37 31h-15h-219q-10 -2 -15 5t-3 15l2 4q0 4 2 8.5t2 8.5q6 16 8 24q4 10 19 13h37l155 2q27 0 28 10t-13 51q-33 102 -56.5 140t-66.5 53q-4 0 -8.5 2t-8.5 2t-8 4q-4 0 -4 12l4 25q0 2 1 7 t3 7t23 2q242 -6 415 0q23 0 23 -12l-8 -31q-4 -12 -19 -12q-72 0 -102.5 -20.5t-30.5 -67.5q0 -51 27 -123q12 -47 49 -49q156 -8 272 0q29 0 41 20q47 72 64 99q41 63 41 87.5t-23.5 37t-91.5 16.5q-10 0 -13 2t-1 10l6 29q4 12 31 12q59 2 167.5 -2t188.5 4q12 2 19.5 -5 t3.5 -17l-21 -31q-92 -14 -137 -60q-20 -20 -53 -69q-57 -82 -80 -113q-10 -20 26 -20h13h145q14 0 2 -33l-10 -35q-8 -18 -29 -14q-18 2 -194 2q-31 0 -45 -27q-80 -119 -121 -172q-18 -25 2 -35q8 -2 28 -2q16 0 61.5 -1t70.5 -1q90 -4 110 0q8 0 14.5 -2t9.5 -6t4 -8 t0 -11.5t-2 -11.5t-4 -11t-3 -9q-8 -25 -31 -25q-37 6 -305 2q-53 0 -74 -51l-105 -360q-35 -115 -34 -158q0 -41 26.5 -55.5t116.5 -20.5q18 0 16 -10l-12 -37q-8 -14 -35 -14q-190 10 -487 0q-14 0 -14 16l8 31q2 14 26 14q10 0 23.5 1t21 2t13.5 1q14 0 28 6 q45 23 62.5 52.5t52.5 156.5l119 400q-10 29 -41 26h-395q-14 2 -20.5 3t-9.5 6.5t-1 13.5zM598 981l51 -199q2 -10 6 -15t11 -3q4 4 20 27q61 78 131 196q10 20 4 25.5t-37 5.5h-153q-25 0 -32 -6t-1 -31z" />
<glyph unicode="&#xa6;" horiz-adv-x="1062" d="M471 -39v756h119v-756h-119zM471 975v756h119v-756h-119z" />
<glyph unicode="&#xa7;" horiz-adv-x="997" d="M-80 -393q0 25 21 61q27 39 53 39q33 0 92 -41q74 -49 100.5 -60.5t63.5 -11.5q92 0 156.5 92.5t64.5 225.5q0 84 -22.5 156.5t-94.5 222.5q-119 248 -118 411q0 154 82.5 315t220.5 271q180 145 376 146q80 0 139.5 -29t59.5 -72q0 -41 -22.5 -73.5t-53.5 -32.5 q-37 0 -92 43q-57 43 -90 57t-76 14q-74 0 -123 -71.5t-49 -182.5q0 -164 113 -430q78 -182 99.5 -261t21.5 -175q0 -172 -101.5 -332.5t-279.5 -273.5t-344 -113q-84 0 -140.5 29t-56.5 76zM336 727q0 -172 84 -344l65 -135q74 -152 74 -297q0 -92 -43 -199 q227 195 227 457q0 150 -102 383q-59 137 -76 184q-47 127 -47 262q0 61 23 148q-205 -244 -205 -459z" />
<glyph unicode="&#xa8;" horiz-adv-x="694" d="M225 1098q0 45 31 76.5t76 31.5q43 0 73.5 -31.5t30.5 -76.5q0 -43 -31.5 -75t-72.5 -32q-45 0 -76 32t-31 75zM567 1100q0 45 32 76.5t77 31.5q43 0 73.5 -31.5t30.5 -76.5t-30.5 -77t-73.5 -32q-45 0 -77 32t-32 77z" />
<glyph unicode="&#xa9;" horiz-adv-x="1583" d="M199 700.5q0 305.5 214 522.5t517 217t518 -217t215 -522.5t-215 -522.5t-518 -217t-517 217t-214 522.5zM276 700.5q0 -274.5 190.5 -467t463 -192.5t464 192.5t191.5 467t-191.5 467t-464 192.5t-463 -192.5t-190.5 -467zM453 694q0 209 148.5 347.5t369.5 138.5 q76 0 192 -39q25 -8 35 -8q14 0 23.5 9t21.5 38h29q23 0 24 -19l19 -241q8 -45 -17 -46h-24q-8 0 -13.5 6.5t-7.5 17.5t-4 15q-80 205 -291 205q-150 0 -242.5 -106.5t-92.5 -288.5q0 -199 93 -307.5t253 -108.5q190 0 303 152q16 20 35 12l12 -8q20 -15 8 -31 q-152 -205 -393 -205q-205 0 -343 134.5t-138 332.5z" />
<glyph unicode="&#xaa;" horiz-adv-x="542" d="M205 950q0 94 70.5 194.5t177.5 158.5q96 53 192 53h37l-82 -377q-10 -57 -10 -68q0 -12 8 -12t47 35q6 6 17.5 18.5t15.5 16.5v-41q-2 -4 -8 -8l-2 -2q-4 -4 -4 -7q-90 -94 -129 -94q-18 0 -30.5 17.5t-12.5 44.5q0 37 18 110q-172 -172 -221 -172q-33 0 -58.5 41 t-25.5 92zM297 975q0 -37 11 -61.5t28 -24.5q12 0 53 33q6 6 46 41.5t73 62.5l12 10l53 248q-96 -8 -147 -43q-57 -37 -93 -110.5t-36 -155.5z" />
<glyph unicode="&#xab;" horiz-adv-x="913" d="M195 467l403 395h51l-301 -397l127 -393h-55zM547 467l325 348h56l-226 -350l58 -342h-53z" />
<glyph unicode="&#xac;" d="M141 877v120h1106v-624h-117v504h-989z" />
<glyph unicode="&#xad;" horiz-adv-x="679" d="M123 382q-4 5 0 40q0 12 8 41q8 23 16 24q8 2 27 2h428q10 0 14.5 -1t8.5 -7t0 -18q-4 -37 -13 -68q-8 -23 -26 -18h-426q-33 0 -37 5z" />
<glyph unicode="&#xae;" horiz-adv-x="1583" d="M160 704.5q0 309.5 217 528.5t522 219t523 -219t218 -528.5t-218 -527.5t-523 -218t-522 218t-217 527.5zM240 705q0 -276 192.5 -471t467 -195t468 195t193.5 471q0 279 -193.5 473t-468 194t-467 -194.5t-192.5 -472.5zM487 264v25q0 12 21 12q57 2 71.5 25.5 t14.5 109.5v547q0 86 -12.5 108.5t-65.5 24.5q-16 0 -16 14v19q0 23 24 18q182 -4 381 0q139 2 227.5 -64.5t88.5 -174.5q0 -166 -201 -232q-23 -6 -6 -30l192 -277q35 -49 58.5 -67.5t58.5 -20.5q4 0 7 -3t3 -7v-9.5t-1 -10.5t-1 -7q0 -10 -3 -12t-13 -2h-4q-61 4 -154 0 q-23 -4 -37 10l-295 412h-41q-25 0 -24 -41v-197v-76q0 -55 112 -57q8 0 9 -14v-25q0 -16 -21 -12q-193 8 -352 0q-4 -2 -12.5 2t-8.5 12zM760 756q0 -23 22 -23q123 0 189.5 48t66.5 134q0 82 -56 136.5t-144 54.5q-37 0 -78 -14v-336z" />
<glyph unicode="&#xaf;" horiz-adv-x="694" d="M193 1108l22 78q2 6 4 14q2 10 5 12t18 2h10h539q48 0 36 -45l-18 -69q-12 -33 -37 -27h-545q-43 0 -34 35z" />
<glyph unicode="&#xb0;" horiz-adv-x="825" d="M268 1036q0 133 93.5 227.5t222.5 94.5q131 0 223 -94.5t92 -227.5t-92 -227t-223 -94q-129 0 -222.5 94t-93.5 227zM360 1036q0 -94 66 -159.5t158 -65.5t156.5 65.5t64.5 159.5t-64.5 161t-156.5 67t-158 -67t-66 -161z" />
<glyph unicode="&#xb1;" d="M141 -45v121h1106v-121h-1106zM141 793v118h492v504h119v-504h495v-118h-495v-504h-119v504h-492z" />
<glyph unicode="&#xb2;" horiz-adv-x="651" d="M170 657.5q0 16.5 23 34.5q6 6 64 55.5t80.5 70t75 67.5t80 76.5t58.5 66.5t47 66q25 45 30 87t-21.5 73.5t-86.5 31.5q-109 0 -166 -110q-12 -25 -43 -25q-25 0 -14 31q27 82 91.5 127t154.5 45q94 0 154.5 -46t60.5 -118q0 -117 -211 -275q-2 -2 -168 -133 q-57 -47 -8 -47h176q63 0 74 45q2 20 28 21q14 0 18.5 -1t8.5 -8.5t-2 -21.5l-23 -106q-4 -27 -65 -21q-20 0 -100 1t-153 1t-122 -2q-41 -2 -41 14.5z" />
<glyph unicode="&#xb3;" horiz-adv-x="651" d="M186 684q0 20 17.5 33.5t40.5 13.5q14 0 56 -19.5t73 -19.5q78 0 137 82q57 74 57 154q0 45 -24.5 71.5t-63.5 26.5q-20 0 -80 -29q-27 -12 -37 13q4 23 29 41q123 61 167 100t44 78q0 29 -20.5 47t-53.5 18q-53 0 -110 -57q-16 -14 -20.5 -16t-22.5 6q-20 16 0 39 q76 90 188 90q72 0 119 -33t47 -84q0 -78 -117 -131q-12 -6 -11 -14.5t11 -12.5q86 -29 86 -123q0 -98 -85 -186t-214 -127q-35 -16 -124 -14t-89 53z" />
<glyph unicode="&#xb4;" horiz-adv-x="694" d="M408 1030q78 248 86 297q8 20 38 21q90 4 134 0q16 4 24 -4.5t-2 -24.5q-59 -82 -250 -297q-6 -6 -14 -7t-13 3t-3 12z" />
<glyph unicode="&#xb6;" horiz-adv-x="933" d="M-18 928q0 186 122.5 290.5t339.5 104.5h490q16 0 16 -27q0 -41 -20 -36h-86q-29 -4 -29 -31v-1706q0 -25 -37 -21q-27 2 -35 6.5t-10 20.5v1690q0 41 -35 41h-110q-31 0 -35 -33v-1706q-2 -18 -45 -19q-39 0 -39 23v964q0 27 -7 35t-30 8q-305 6 -403 199 q-47 90 -47 197z" />
<glyph unicode="&#xb7;" horiz-adv-x="608" d="M270 602q0 45 32 77t75 32q45 0 76.5 -32t31.5 -77t-31.5 -77.5t-76.5 -32.5q-43 0 -75 32.5t-32 77.5z" />
<glyph unicode="&#xb8;" horiz-adv-x="694" d="M80 -379q0 14 14 19q25 -2 43 -2q88 0 135 31.5t47 90.5q0 68 -86 76q-18 2 -12 23l68 133h43l-23 -45q53 -8 84 -47.5t31 -96.5q0 -98 -76 -153.5t-207 -55.5q-16 0 -45 3q-23 12 -16 24z" />
<glyph unicode="&#xb9;" horiz-adv-x="651" d="M295 644q-6 5 0 18q6 18 13 20t44 2q51 0 64 57l98 430q2 23 -7 27t-18 -4q-76 -45 -147 -70q-14 -4 -19.5 -1t-0.5 14l8 34q154 55 256 164q23 23 32 21h35q25 0 17 -37l-133 -576q-8 -35 7 -46t54 -13q12 0 19.5 -5t5.5 -17q-8 -25 -29 -25q-168 4 -264 2 q-18 -2 -23.5 -1t-11.5 6z" />
<glyph unicode="&#xba;" horiz-adv-x="542" d="M229 1020q0 172 185 285q78 51 135 51q53 0 90 -56.5t37 -134.5q0 -106 -65.5 -193t-182.5 -136q-43 -18 -74 -19q-49 0 -87 61.5t-38 141.5zM326 1016q0 -61 26.5 -103.5t63.5 -42.5q63 0 115.5 85t52.5 196q0 63 -30 107.5t-73 44.5q-59 0 -107 -87.5t-48 -199.5z" />
<glyph unicode="&#xbb;" horiz-adv-x="913" d="M190 119l230 350l-62 342h54l161 -344l-327 -348h-56zM469 72l303 397l-125 393h53l226 -395l-404 -395h-53z" />
<glyph unicode="&#xbc;" horiz-adv-x="1714" d="M295 644q-6 5 0 18q6 18 13 20t44 2q51 0 64 57l98 430q2 23 -7 27t-18 -4q-76 -45 -147 -70q-14 -4 -19.5 -1t-0.5 14l8 34q154 55 256 164q23 23 32 21h35q25 0 17 -37l-133 -576q-8 -35 7 -46t54 -13q12 0 19.5 -5t5.5 -17q-8 -25 -29 -25q-168 4 -264 2 q-18 -2 -23.5 -1t-11.5 6zM322 -18l1237 1384q18 27 30.5 32t34.5 -5q36 -9 18 -50l-1263 -1413q-25 -8 -47 9q-33 10 -10 43zM1128 223q-10 20 23 51l420 412q18 16 43 21h20q23 0 13 -48l-82 -344q-6 -27 12 -34h70q16 0 16 -25l-12 -53h-92q-25 -16 -31 -39l-33 -148 q-6 -33 -20 -34q-4 -2 -11 -2l-71 2q-29 0 -21 32l37 154q6 27 -12 35h-226q-35 0 -38 8q-2 4 -5 12zM1262 305q-14 -23 4 -24h149q23 0 29 30l39 176q4 18 -2 22.5t-21 -7.5z" />
<glyph unicode="&#xbd;" horiz-adv-x="1714" d="M295 644q-6 5 0 18q6 18 13 20t44 2q51 0 64 57l98 430q2 23 -7 27t-18 -4q-76 -45 -147 -70q-14 -4 -19.5 -1t-0.5 14l8 34q154 55 256 164q23 23 32 21h35q25 0 17 -37l-133 -576q-8 -35 7 -46t54 -13q12 0 19.5 -5t5.5 -17q-8 -25 -29 -25q-168 4 -264 2 q-18 -2 -23.5 -1t-11.5 6zM322 -18l1237 1384q18 27 30.5 32t34.5 -5q36 -9 18 -50l-1263 -1413q-25 -8 -47 9q-33 10 -10 43zM1120 10v19q12 10 64.5 54t82 69.5t82 72.5t85 81t65.5 73t49 70q25 45 30 87t-21.5 72.5t-86.5 30.5q-106 0 -163 -109q-8 -16 -15.5 -20 t-27.5 -4q-25 0 -15 29q27 82 90.5 127t153.5 45q96 0 155.5 -45t59.5 -117q0 -106 -209 -266q-33 -25 -92 -74t-82 -68q-45 -43 -4 -47h176q66 0 74 43q2 23 28 23q14 0 18.5 -1t8.5 -8.5t-2 -23.5l-20 -105q-4 -25 -68 -22q-98 6 -373 0q-35 -2 -43 14z" />
<glyph unicode="&#xbe;" horiz-adv-x="1714" d="M186 684q0 20 17.5 33.5t40.5 13.5q14 0 56 -19.5t73 -19.5q78 0 137 82q57 74 57 154q0 45 -24.5 71.5t-63.5 26.5q-20 0 -80 -29q-27 -12 -37 13q4 23 29 41q123 61 167 100t44 78q0 29 -20.5 47t-53.5 18q-53 0 -110 -57q-16 -14 -20.5 -16t-22.5 6q-20 16 0 39 q76 90 188 90q72 0 119 -33t47 -84q0 -78 -117 -131q-12 -6 -11 -14.5t11 -12.5q86 -29 86 -123q0 -98 -85 -186t-214 -127q-35 -16 -124 -14t-89 53zM322 -18l1237 1384q18 27 30.5 32t34.5 -5q36 -9 18 -50l-1263 -1413q-25 -8 -47 9q-33 10 -10 43zM1128 223 q-10 20 23 51l420 412q18 16 43 21h20q23 0 13 -48l-82 -344q-6 -27 12 -34h70q16 0 16 -25l-12 -53h-92q-25 -16 -31 -39l-33 -148q-6 -33 -20 -34q-4 -2 -11 -2l-71 2q-29 0 -21 32l37 154q6 27 -12 35h-226q-35 0 -38 8q-2 4 -5 12zM1262 305q-14 -23 4 -24h149 q23 0 29 30l39 176q4 18 -2 22.5t-21 -7.5z" />
<glyph unicode="&#xbf;" horiz-adv-x="825" d="M106 -168q0 205 109 307q47 45 123 82q78 39 108.5 64.5t55.5 70.5q33 57 49 136q6 20 18 22h21q12 0 10 -33q-25 -240 -94 -331q-29 -39 -141 -103q-98 -55 -139.5 -105.5t-41.5 -113.5q0 -70 51.5 -117t129.5 -47q53 0 127 25q27 8 45 8q27 0 42 -23.5t15 -58.5 q0 -49 -55.5 -81t-135.5 -32q-131 0 -214 92.5t-83 237.5zM539 756q4 49 33.5 81.5t70.5 32.5q39 0 61.5 -28.5t22.5 -73.5q0 -53 -29.5 -89t-74.5 -36q-47 0 -66.5 37t-17.5 76z" />
<glyph unicode="&#xc0;" horiz-adv-x="1419" d="M-86 20q2 27 29 27q82 16 131 51t129 140l852 1108q4 10 22 14q39 12 82 0q25 -4 25 -33l12 -1163q0 -59 25.5 -82t70.5 -29h58h14q26 -4 20 -35q-2 -23 -28 -22q-207 10 -578 0q-10 0 -14 12t1 25.5t19 13.5q135 0 182.5 35t47.5 133l-2 334q0 6 -10.5 14t-18.5 8h-403 q-14 0 -29 -14l-256 -340q-39 -51 -39 -86q0 -76 117 -80h53q12 0 16 -13t-3 -27.5t-19 -14.5q-229 8 -492 0q-18 0 -14 24zM656.5 674q7.5 -10 29.5 -10l291 2q39 -1 39 28v424q0 27 -13.5 29t-21.5 -12l-324 -441q-8 -10 -0.5 -20zM932 1786.5q6 7.5 18 7.5h152 q20 0 24 -6v-2l2 -4l99 -312q2 -4 -2 -7t-13 -3q-16 0 -22 8l-252 299q-12 12 -6 19.5z" />
<glyph unicode="&#xc1;" horiz-adv-x="1419" d="M-86 20q2 27 29 27q82 16 131 51t129 140l852 1108q4 10 22 14q39 12 82 0q25 -4 25 -33l12 -1163q0 -59 25.5 -82t70.5 -29h58h14q26 -4 20 -35q-2 -23 -28 -22q-207 10 -578 0q-10 0 -14 12t1 25.5t19 13.5q135 0 182.5 35t47.5 133l-2 334q0 6 -10.5 14t-18.5 8h-403 q-14 0 -29 -14l-256 -340q-39 -51 -39 -86q0 -76 117 -80h53q12 0 16 -13t-3 -27.5t-19 -14.5q-229 8 -492 0q-18 0 -14 24zM656.5 674q7.5 -10 29.5 -10l291 2q39 -1 39 28v424q0 27 -13.5 29t-21.5 -12l-324 -441q-8 -10 -0.5 -20zM1096 1479q78 250 86 297q8 20 39 20 q90 4 133 0q14 2 23 -5.5t-1 -23.5q-27 -37 -70.5 -90t-106 -123.5t-73.5 -83.5q-6 -6 -14 -7t-13 3t-3 13z" />
<glyph unicode="&#xc2;" horiz-adv-x="1419" d="M-86 20q2 27 29 27q82 16 131 51t129 140l852 1108q4 10 22 14q39 12 82 0q25 -4 25 -33l12 -1163q0 -59 25.5 -82t70.5 -29h58h14q26 -4 20 -35q-2 -23 -28 -22q-207 10 -578 0q-10 0 -14 12t1 25.5t19 13.5q135 0 182.5 35t47.5 133l-2 334q0 6 -10.5 14t-18.5 8h-403 q-14 0 -29 -14l-256 -340q-39 -51 -39 -86q0 -76 117 -80h53q12 0 16 -13t-3 -27.5t-19 -14.5q-229 8 -492 0q-18 0 -14 24zM656.5 674q7.5 -10 29.5 -10l291 2q39 -1 39 28v424q0 27 -13.5 29t-21.5 -12l-324 -441q-8 -10 -0.5 -20zM848 1427q-12 2 0 15l299 301 q16 18 45 18q12 2 48 0t42 -2q31 -2 37 -30l70 -281q4 -20 -11 -21h-12l-162 195q-10 12 -26 2l-306 -197h-24z" />
<glyph unicode="&#xc3;" horiz-adv-x="1419" d="M-86 20q2 27 29 27q82 16 131 51t129 140l852 1108q4 10 22 14q39 12 82 0q25 -4 25 -33l12 -1163q0 -59 25.5 -82t70.5 -29h58h14q26 -4 20 -35q-2 -23 -28 -22q-207 10 -578 0q-10 0 -14 12t1 25.5t19 13.5q135 0 182.5 35t47.5 133l-2 334q0 6 -10.5 14t-18.5 8h-403 q-14 0 -29 -14l-256 -340q-39 -51 -39 -86q0 -76 117 -80h53q12 0 16 -13t-3 -27.5t-19 -14.5q-229 8 -492 0q-18 0 -14 24zM656.5 674q7.5 -10 29.5 -10l291 2q39 -1 39 28v424q0 27 -13.5 29t-21.5 -12l-324 -441q-8 -10 -0.5 -20zM825 1503q23 248 193 248 q70 0 181.5 -71.5t146.5 -71.5q70 0 90 121q2 20 22 20q19 0 19 -27q0 -106 -54.5 -177.5t-136.5 -71.5q-76 0 -185.5 71.5t-142.5 71.5q-39 0 -58 -26.5t-34 -98.5q-2 -16 -24 -16q-18 0 -17 28z" />
<glyph unicode="&#xc4;" horiz-adv-x="1419" d="M-86 20q2 27 29 27q82 16 131 51t129 140l852 1108q4 10 22 14q39 12 82 0q25 -4 25 -33l12 -1163q0 -59 25.5 -82t70.5 -29h58h14q26 -4 20 -35q-2 -23 -28 -22q-207 10 -578 0q-10 0 -14 12t1 25.5t19 13.5q135 0 182.5 35t47.5 133l-2 334q0 6 -10.5 14t-18.5 8h-403 q-14 0 -29 -14l-256 -340q-39 -51 -39 -86q0 -76 117 -80h53q12 0 16 -13t-3 -27.5t-19 -14.5q-229 8 -492 0q-18 0 -14 24zM656.5 674q7.5 -10 29.5 -10l291 2q39 -1 39 28v424q0 27 -13.5 29t-21.5 -12l-324 -441q-8 -10 -0.5 -20zM893 1546q0 45 30.5 77t75.5 32 q43 0 74 -32t31 -77q0 -43 -32 -75.5t-73 -32.5q-43 0 -74.5 32.5t-31.5 75.5zM1235 1548q0 45 31.5 77t74.5 32q45 0 76 -32t31 -77t-31 -77.5t-76 -32.5q-43 0 -74.5 32.5t-31.5 77.5z" />
<glyph unicode="&#xc5;" horiz-adv-x="1419" d="M-86 20q2 27 29 27q82 16 131 51t129 140l852 1108q4 10 22 14q39 12 82 0q25 -4 25 -33l12 -1163q0 -59 25.5 -82t70.5 -29h58h14q26 -4 20 -35q-2 -23 -28 -22q-207 10 -578 0q-10 0 -14 12t1 25.5t19 13.5q135 0 182.5 35t47.5 133l-2 334q0 6 -10.5 14t-18.5 8h-403 q-14 0 -29 -14l-256 -340q-39 -51 -39 -86q0 -76 117 -80h53q12 0 16 -13t-3 -27.5t-19 -14.5q-229 8 -492 0q-18 0 -14 24zM656.5 674q7.5 -10 29.5 -10l291 2q39 -1 39 28v424q0 27 -13.5 29t-21.5 -12l-324 -441q-8 -10 -0.5 -20zM963 1620q0 82 58 141.5t138 59.5 q82 0 138.5 -58.5t56.5 -142.5t-56.5 -141.5t-138.5 -57.5q-80 0 -138 58.5t-58 140.5zM1038 1620q0 -51 35 -87t86 -36t87 36t36 87t-36 88t-87 37t-86 -36t-35 -89z" />
<glyph unicode="&#xc6;" horiz-adv-x="1976" d="M-53 20q6 18 18 23q90 8 158 68q57 47 108 112q8 12 46 59.5t69 86.5l649 827q20 27 21 39q0 16 -25.5 24.5t-105.5 14.5q-16 2 -18.5 8t3.5 18q10 25 31 27q508 -8 1045 -4q27 0 36 -6.5t9 -26.5q-16 -123 -49 -258q-16 -8 -21 -8q-14 -2 -25 8l-2 27q-10 113 -55 158 t-158 45h-364q-23 -4 -29 -33l-98 -502q-2 -14 7 -20.5t24 -6.5h376q141 0 193 127q4 8 8 13.5t6 5.5h11h8q16 -4 12 -27q-41 -131 -66 -332q-4 -27 -26 -26h-12q-8 2 -10.5 7t-0.5 15l2 9q0 86 -42 116.5t-164 30.5h-318q-20 -2 -31 -27l-84 -417q-4 -25 -4 -39 q0 -55 40 -77t149 -22h135q174 0 311 93q49 33 77 61.5t64 83.5h29q14 0 4 -31l-84 -239q-10 -29 -45 -29q-561 8 -1036 0q-27 0 -21 27q6 20 31 20q88 4 126 43t59 145l51 267q4 14 -1 19t-24 5h-371q-29 0 -51 -24l-200 -258q-66 -86 -66 -125t25.5 -53.5t109.5 -18.5 q16 -10 12 -20l-2 -5q-2 -4 -5 -7t-6 -7t-9 -6t-12 -2q-305 8 -414 0q-8 6 -8 24zM607 596q1 -8 5 -10t9 -2h340q20 0 32 32l121 611q0 27 -16 12l-482 -623q-10 -12 -9 -20z" />
<glyph unicode="&#xc7;" horiz-adv-x="1458" d="M59 567q0 219 128 400.5t350.5 286t488.5 104.5q242 0 447 -92q27 -12 16 -58q-4 -14 -80 -266q-4 -14 -17.5 -16t-22.5 6t-7 18q4 27 4 51q0 289 -354 289q-311 0 -532.5 -213t-221.5 -522q0 -242 123 -383t342 -141q328 0 545 311q4 8 18 9t23.5 -6t5.5 -19 q-61 -156 -107 -322q-2 -8 -15 -8t-24 8q-33 10 -61 10q-33 0 -125 -18q-158 -33 -266 -33l-17 -35q53 -8 84 -48t31 -95q0 -98 -75.5 -153.5t-207.5 -55.5q-16 0 -45 2q-23 12 -16 25q0 14 14 18q25 -2 43 -2q88 0 135.5 32t47.5 91q0 68 -86 76q-18 2 -13 22l62 125 q-264 10 -439.5 173t-175.5 429z" />
<glyph unicode="&#xc8;" horiz-adv-x="1355" d="M4 27q8 33 31 32q12 2 35.5 1t31.5 -1q74 6 104 40t50 132l180 859q12 57 13 88q0 90 -136 90h-53q-23 2 -18 28q6 27 39 27h1046q29 0 39 -9t6 -38q-23 -125 -53 -246q2 -6 -4 -9t-17 -3q-12 0 -17 5t-6 10t1 16.5t2 17.5q0 102 -54.5 147.5t-179.5 45.5h-344 q-45 0 -51 -29l-104 -498q-2 -14 8 -20t33 -6h336q92 0 139 28.5t86 110.5q4 14 31 8q18 -2 12 -16q-25 -98 -78 -371q0 -10 -16 -14q-20 -4 -27 24q-2 10 -2 23q0 80 -45 108.5t-174 28.5h-281q-43 0 -49 -29l-86 -409q-10 -23 -4 -40.5t5 -31.5t13.5 -23.5t19.5 -16.5 t25.5 -11t29.5 -7t33 -4.5t35 -1.5h36h8h143q186 0 303 84q55 39 81 64t67 78q6 10 17 12t18.5 -2t7.5 -12q-12 -29 -32.5 -94.5t-37 -117.5t-22.5 -61q-18 -18 -82 -18q-606 8 -1071 0q-8 0 -15.5 10t-5.5 21zM732 1787.5q5 6.5 16 6.5h151q20 0 25 -6q0 -2 2 -6l98 -312 q2 -4 -2 -7t-12 -3q-14 0 -23 8l-252 299q-8 14 -3 20.5z" />
<glyph unicode="&#xc9;" horiz-adv-x="1355" d="M4 27q8 33 31 32q12 2 35.5 1t31.5 -1q74 6 104 40t50 132l180 859q12 57 13 88q0 90 -136 90h-53q-23 2 -18 28q6 27 39 27h1046q29 0 39 -9t6 -38q-23 -125 -53 -246q2 -6 -4 -9t-17 -3q-12 0 -17 5t-6 10t1 16.5t2 17.5q0 102 -54.5 147.5t-179.5 45.5h-344 q-45 0 -51 -29l-104 -498q-2 -14 8 -20t33 -6h336q92 0 139 28.5t86 110.5q4 14 31 8q18 -2 12 -16q-25 -98 -78 -371q0 -10 -16 -14q-20 -4 -27 24q-2 10 -2 23q0 80 -45 108.5t-174 28.5h-281q-43 0 -49 -29l-86 -409q-10 -23 -4 -40.5t5 -31.5t13.5 -23.5t19.5 -16.5 t25.5 -11t29.5 -7t33 -4.5t35 -1.5h36h8h143q186 0 303 84q55 39 81 64t67 78q6 10 17 12t18.5 -2t7.5 -12q-12 -29 -32.5 -94.5t-37 -117.5t-22.5 -61q-18 -18 -82 -18q-606 8 -1071 0q-8 0 -15.5 10t-5.5 21zM872 1479q78 250 86 297q8 20 39 20q90 4 133 0 q14 2 23.5 -5.5t-0.5 -23.5q-27 -37 -71 -90t-106.5 -123.5t-72.5 -83.5q-6 -6 -14 -7t-13.5 3t-3.5 13z" />
<glyph unicode="&#xca;" horiz-adv-x="1355" d="M4 27q8 33 31 32q12 2 35.5 1t31.5 -1q74 6 104 40t50 132l180 859q12 57 13 88q0 90 -136 90h-53q-23 2 -18 28q6 27 39 27h1046q29 0 39 -9t6 -38q-23 -125 -53 -246q2 -6 -4 -9t-17 -3q-12 0 -17 5t-6 10t1 16.5t2 17.5q0 102 -54.5 147.5t-179.5 45.5h-344 q-45 0 -51 -29l-104 -498q-2 -14 8 -20t33 -6h336q92 0 139 28.5t86 110.5q4 14 31 8q18 -2 12 -16q-25 -98 -78 -371q0 -10 -16 -14q-20 -4 -27 24q-2 10 -2 23q0 80 -45 108.5t-174 28.5h-281q-43 0 -49 -29l-86 -409q-10 -23 -4 -40.5t5 -31.5t13.5 -23.5t19.5 -16.5 t25.5 -11t29.5 -7t33 -4.5t35 -1.5h36h8h143q186 0 303 84q55 39 81 64t67 78q6 10 17 12t18.5 -2t7.5 -12q-12 -29 -32.5 -94.5t-37 -117.5t-22.5 -61q-18 -18 -82 -18q-606 8 -1071 0q-8 0 -15.5 10t-5.5 21zM586 1427q-12 2 0 15l299 301q16 18 45 18q12 2 48 0t42 -2 q31 -2 37 -30l69 -281q4 -20 -10 -21h-12l-162 195q-10 12 -27 2l-305 -197h-24z" />
<glyph unicode="&#xcb;" horiz-adv-x="1355" d="M4 27q8 33 31 32q12 2 35.5 1t31.5 -1q74 6 104 40t50 132l180 859q12 57 13 88q0 90 -136 90h-53q-23 2 -18 28q6 27 39 27h1046q29 0 39 -9t6 -38q-23 -125 -53 -246q2 -6 -4 -9t-17 -3q-12 0 -17 5t-6 10t1 16.5t2 17.5q0 102 -54.5 147.5t-179.5 45.5h-344 q-45 0 -51 -29l-104 -498q-2 -14 8 -20t33 -6h336q92 0 139 28.5t86 110.5q4 14 31 8q18 -2 12 -16q-25 -98 -78 -371q0 -10 -16 -14q-20 -4 -27 24q-2 10 -2 23q0 80 -45 108.5t-174 28.5h-281q-43 0 -49 -29l-86 -409q-10 -23 -4 -40.5t5 -31.5t13.5 -23.5t19.5 -16.5 t25.5 -11t29.5 -7t33 -4.5t35 -1.5h36h8h143q186 0 303 84q55 39 81 64t67 78q6 10 17 12t18.5 -2t7.5 -12q-12 -29 -32.5 -94.5t-37 -117.5t-22.5 -61q-18 -18 -82 -18q-606 8 -1071 0q-8 0 -15.5 10t-5.5 21zM649 1546q0 45 31 77t76 32q43 0 73.5 -32t30.5 -77 q0 -43 -31.5 -75.5t-72.5 -32.5q-43 0 -75 32.5t-32 75.5zM991 1548q0 45 32 77t77 32q43 0 73.5 -32t30.5 -77t-30.5 -77.5t-73.5 -32.5q-45 0 -77 32.5t-32 77.5z" />
<glyph unicode="&#xcc;" horiz-adv-x="729" d="M47 27q8 25 33 24q100 -2 137 37t59 143l183 861q27 86 5 128t-124 48q-25 -2 -39 3t-6 27q6 25 33 25q258 -12 534 0q22 0 10 -33q-10 -29 -36 -20q-100 -6 -135 -38t-58 -142l-182 -861q-23 -106 11 -145t149 -37q27 0 18 -29q-4 -18 -23 -22q-379 10 -555 0 q-23 0 -14 31zM417 1787.5q5 6.5 15 6.5h152q23 0 24 -6l2 -2q0 -4 2 -4l99 -312q0 -10 -15 -10q-16 0 -22 8l-254 299q-8 14 -3 20.5z" />
<glyph unicode="&#xcd;" horiz-adv-x="729" d="M47 27q8 25 33 24q100 -2 137 37t59 143l183 861q27 86 5 128t-124 48q-25 -2 -39 3t-6 27q6 25 33 25q258 -12 534 0q22 0 10 -33q-10 -29 -36 -20q-100 -6 -135 -38t-58 -142l-182 -861q-23 -106 11 -145t149 -37q27 0 18 -29q-4 -18 -23 -22q-379 10 -555 0 q-23 0 -14 31zM559 1479q6 23 27.5 92t38 125.5t20.5 79.5q8 20 39 20q86 6 133 0q14 2 22.5 -5.5t-1.5 -23.5q-51 -74 -250 -297q-6 -6 -14.5 -7t-12.5 3t-2 13z" />
<glyph unicode="&#xce;" horiz-adv-x="729" d="M47 27q8 25 33 24q100 -2 137 37t59 143l183 861q27 86 5 128t-124 48q-25 -2 -39 3t-6 27q6 25 33 25q258 -12 534 0q22 0 10 -33q-10 -29 -36 -20q-100 -6 -135 -38t-58 -142l-182 -861q-23 -106 11 -145t149 -37q27 0 18 -29q-4 -18 -23 -22q-379 10 -555 0 q-23 0 -14 31zM338 1430q-12 2 0 14l299 301q16 18 45 18q12 2 48 0t42 -2q31 -2 37 -30l70 -281q4 -20 -11 -20h-12l-162 194q-10 12 -26 2l-306 -196h-24z" />
<glyph unicode="&#xcf;" horiz-adv-x="729" d="M47 27q8 25 33 24q100 -2 137 37t59 143l183 861q27 86 5 128t-124 48q-25 -2 -39 3t-6 27q6 25 33 25q258 -12 534 0q22 0 10 -33q-10 -29 -36 -20q-100 -6 -135 -38t-58 -142l-182 -861q-23 -106 11 -145t149 -37q27 0 18 -29q-4 -18 -23 -22q-379 10 -555 0 q-23 0 -14 31zM377 1546q0 47 29.5 78t74.5 31q43 0 74 -32t31 -77q0 -43 -31 -75.5t-74 -32.5t-73.5 32.5t-30.5 75.5zM719 1548q0 45 30.5 77t75.5 32t75 -31t30 -78q0 -45 -31 -77.5t-74 -32.5q-45 0 -75.5 32.5t-30.5 77.5z" />
<glyph unicode="&#xd0;" horiz-adv-x="1583" d="M63 12l7 27q6 14 20 14h6q98 0 132 35t59 168l59 305q0 41 -37 41h-149q-16 -4 -26.5 5t-8.5 28q14 45 12 65q6 20 53 21h166q16 6 27 24l70 347q12 68 12 90q0 94 -127 94h-41q-18 0 -18 12l6 23q6 12 20 12q106 4 606 0q307 -2 487.5 -162t180.5 -428 q0 -313 -224.5 -527t-559.5 -212l-703 2q-14 0 -22.5 4t-6.5 12zM449 174q0 -68 47 -93.5t176 -25.5q305 0 507.5 188.5t202.5 499.5q0 141 -48 245t-135 162t-194.5 86t-238.5 28h-61q-39 0 -54 -45l-90 -453q-8 -45 29 -45q223 6 264 0q12 2 18.5 -6t1.5 -29l-10 -53 q-12 -31 -35 -31h-254q-18 0 -35.5 -11t-19.5 -30l-65 -334q-6 -25 -6 -53z" />
<glyph unicode="&#xd1;" horiz-adv-x="1615" d="M25 25q6 23 22 20q102 14 146.5 62.5t68.5 171.5l187 923q-14 18 -30 30.5t-37.5 18.5t-33.5 9.5t-42 6.5t-40 5q-18 4 -14 26q2 25 22 25q90 -4 240 0q55 0 66 -16l671 -1035q27 -39 39 0l166 783q25 115 -10 164t-160 57q-10 0 -10 22q2 25 20 25q185 -8 457 0 q25 2 8 -29q-8 -16 -18 -16q-96 -14 -145.5 -64.5t-71.5 -158.5l-228 -1078q-2 -8 -27.5 -9t-35.5 9l-703 1100q-23 29 -30 -8l-152 -780q-20 -111 7.5 -167t138.5 -71q20 0 25 -5t3 -23q-4 -27 -18 -27q-279 10 -465 0q-23 -2 -16 29zM731 1440q23 248 193 248 q70 0 181.5 -72t145.5 -72q70 0 90 121q2 20 23 21q18 0 18 -27q0 -106 -54 -178t-136 -72q-76 0 -185.5 71.5t-142.5 71.5q-39 0 -58.5 -26.5t-33.5 -98.5q-2 -16 -24 -16q-18 0 -17 29z" />
<glyph unicode="&#xd2;" horiz-adv-x="1677" d="M180 588q0 313 237.5 540.5t565.5 227.5q268 0 443.5 -179.5t175.5 -443.5q0 -319 -237 -544.5t-572 -225.5q-268 0 -440.5 178t-172.5 447zM373 537q0 -238 110.5 -373t309.5 -137q260 -2 438 220t178 550q0 223 -114.5 360t-309.5 135q-236 0 -381 -155 q-106 -113 -168.5 -275t-62.5 -325zM886 1787.5q5 6.5 15 6.5h154q18 0 22 -6q0 -2 2 -2l2 -4l99 -312q2 -4 -2 -7t-13 -3q-16 0 -22 8l-254 299q-8 14 -3 20.5z" />
<glyph unicode="&#xd3;" horiz-adv-x="1677" d="M180 588q0 313 237.5 540.5t565.5 227.5q268 0 443.5 -179.5t175.5 -443.5q0 -319 -237 -544.5t-572 -225.5q-268 0 -440.5 178t-172.5 447zM373 537q0 -238 110.5 -373t309.5 -137q260 -2 438 220t178 550q0 223 -114.5 360t-309.5 135q-236 0 -381 -155 q-106 -113 -168.5 -275t-62.5 -325zM967 1479q6 23 27.5 92t38 125.5t20.5 79.5q8 20 39 20q88 6 133 0q14 2 23 -5.5t-1 -23.5q-53 -72 -252 -297q-6 -6 -14 -7t-12 3t-2 13z" />
<glyph unicode="&#xd4;" horiz-adv-x="1677" d="M180 588q0 313 237.5 540.5t565.5 227.5q268 0 443.5 -179.5t175.5 -443.5q0 -319 -237 -544.5t-572 -225.5q-268 0 -440.5 178t-172.5 447zM373 537q0 -238 110.5 -373t309.5 -137q260 -2 438 220t178 550q0 223 -114.5 360t-309.5 135q-236 0 -381 -155 q-106 -113 -168.5 -275t-62.5 -325zM768 1432q-12 2 0 14l299 301q16 18 45 18q12 2 48 0t42 -2q31 -2 37 -30l70 -281q4 -20 -11 -20h-12l-162 194q-10 12 -26 2l-305 -196h-25z" />
<glyph unicode="&#xd5;" horiz-adv-x="1677" d="M180 588q0 313 237.5 540.5t565.5 227.5q268 0 443.5 -179.5t175.5 -443.5q0 -319 -237 -544.5t-572 -225.5q-268 0 -440.5 178t-172.5 447zM373 537q0 -238 110.5 -373t309.5 -137q260 -2 438 220t178 550q0 223 -114.5 360t-309.5 135q-236 0 -381 -155 q-106 -113 -168.5 -275t-62.5 -325zM700 1503q23 248 193 248q70 0 181.5 -71.5t146.5 -71.5q70 0 90 121q2 20 22 20q19 0 19 -27q0 -106 -54.5 -177.5t-136.5 -71.5q-76 0 -185.5 71.5t-141.5 71.5q-39 0 -58.5 -26.5t-34.5 -98.5q-2 -16 -24 -16q-18 0 -17 28z" />
<glyph unicode="&#xd6;" horiz-adv-x="1677" d="M180 588q0 313 237.5 540.5t565.5 227.5q268 0 443.5 -179.5t175.5 -443.5q0 -319 -237 -544.5t-572 -225.5q-268 0 -440.5 178t-172.5 447zM373 537q0 -238 110.5 -373t309.5 -137q260 -2 438 220t178 550q0 223 -114.5 360t-309.5 135q-236 0 -381 -155 q-106 -113 -168.5 -275t-62.5 -325zM784 1546q0 47 30 78t75 31q43 0 73.5 -32t30.5 -77q0 -43 -30.5 -75.5t-73.5 -32.5t-74 32.5t-31 75.5zM1126 1548q0 45 31 77t76 32t74.5 -31t29.5 -78q0 -45 -30.5 -77.5t-73.5 -32.5q-45 0 -76 32.5t-31 77.5z" />
<glyph unicode="&#xd7;" horiz-adv-x="1392" d="M190 254l422 428l-422 432l82 86l424 -434l424 434l82 -86l-424 -432l420 -428l-82 -84l-418 428l-424 -428z" />
<glyph unicode="&#xd8;" horiz-adv-x="1650" d="M225 588q0 309 236.5 538.5t556.5 229.5q203 0 360 -103q10 -6 25 13l119 135q8 6 30.5 -8.5t16.5 -26.5l-117 -137q-14 -16 -4 -27q215 -178 215 -467q0 -322 -235.5 -547t-571.5 -225q-207 0 -367 113q-20 14 -36 -6l-152 -176q-12 -12 -25.5 -8.5t-21.5 17t-2 19.5 l149 174q25 31 11 45q-186 188 -187 447zM418 541q0 -178 69 -305q12 -25 35 0l793 923q12 20 -10 41q-117 96 -277 96q-233 0 -383 -159q-104 -109 -165.5 -272t-61.5 -324zM551 182q-18 -18 4 -39q121 -121 303 -120q260 0 437.5 223t177.5 549q0 182 -80 307 q-23 35 -41 14z" />
<glyph unicode="&#xd9;" horiz-adv-x="1515" d="M121 1303q6 23 29 22q256 -12 544 0q10 0 18.5 -8t6.5 -19q0 -33 -37 -28q-104 4 -140 -29t-61 -151l-116 -545q-25 -117 -25 -203q0 -145 102.5 -231t284.5 -86q236 0 352.5 124.5t159.5 354.5l104 555q23 119 -16 166t-164 47q-14 0 -10 28q4 12 9 19.5t12 5.5 q342 -6 454 2q23 2 17 -31q-4 -29 -27 -24q-96 -12 -137 -53t-66 -175l-104 -561q-29 -154 -92 -260q-158 -260 -527 -260q-178 0 -290.5 50t-182.5 157q-57 88 -61 187.5t22 195.5l113 528q10 55 12 97.5t-29.5 68t-101.5 25.5h-35q-8 0 -14 10t-4 21zM742.5 1787.5 q5.5 6.5 15.5 6.5h151q20 0 25 -6v-2l2 -4l98 -312q2 -4 -2 -7t-12 -3q-14 0 -23 8l-252 299q-8 14 -2.5 20.5z" />
<glyph unicode="&#xda;" horiz-adv-x="1515" d="M121 1303q6 23 29 22q256 -12 544 0q10 0 18.5 -8t6.5 -19q0 -33 -37 -28q-104 4 -140 -29t-61 -151l-116 -545q-25 -117 -25 -203q0 -145 102.5 -231t284.5 -86q236 0 352.5 124.5t159.5 354.5l104 555q23 119 -16 166t-164 47q-14 0 -10 28q4 12 9 19.5t12 5.5 q342 -6 454 2q23 2 17 -31q-4 -29 -27 -24q-96 -12 -137 -53t-66 -175l-104 -561q-29 -154 -92 -260q-158 -260 -527 -260q-178 0 -290.5 50t-182.5 157q-57 88 -61 187.5t22 195.5l113 528q10 55 12 97.5t-29.5 68t-101.5 25.5h-35q-8 0 -14 10t-4 21zM961 1479 q78 250 86 297q8 20 38 20q90 4 134 0q14 2 23 -5.5t-1 -23.5q-27 -37 -71 -90t-106.5 -123.5t-72.5 -83.5q-6 -6 -14 -7t-13.5 3t-2.5 13z" />
<glyph unicode="&#xdb;" horiz-adv-x="1515" d="M121 1303q6 23 29 22q256 -12 544 0q10 0 18.5 -8t6.5 -19q0 -33 -37 -28q-104 4 -140 -29t-61 -151l-116 -545q-25 -117 -25 -203q0 -145 102.5 -231t284.5 -86q236 0 352.5 124.5t159.5 354.5l104 555q23 119 -16 166t-164 47q-14 0 -10 28q4 12 9 19.5t12 5.5 q342 -6 454 2q23 2 17 -31q-4 -29 -27 -24q-96 -12 -137 -53t-66 -175l-104 -561q-29 -154 -92 -260q-158 -260 -527 -260q-178 0 -290.5 50t-182.5 157q-57 88 -61 187.5t22 195.5l113 528q10 55 12 97.5t-29.5 68t-101.5 25.5h-35q-8 0 -14 10t-4 21zM688 1438q-12 2 0 14 l297 301q16 16 47 16q23 4 90 -2q29 0 37 -28l70 -281q4 -20 -12 -20h-13l-160 194q-12 12 -26 2l-305 -196h-25z" />
<glyph unicode="&#xdc;" horiz-adv-x="1515" d="M121 1303q6 23 29 22q256 -12 544 0q10 0 18.5 -8t6.5 -19q0 -33 -37 -28q-104 4 -140 -29t-61 -151l-116 -545q-25 -117 -25 -203q0 -145 102.5 -231t284.5 -86q236 0 352.5 124.5t159.5 354.5l104 555q23 119 -16 166t-164 47q-14 0 -10 28q4 12 9 19.5t12 5.5 q342 -6 454 2q23 2 17 -31q-4 -29 -27 -24q-96 -12 -137 -53t-66 -175l-104 -561q-29 -154 -92 -260q-158 -260 -527 -260q-178 0 -290.5 50t-182.5 157q-57 88 -61 187.5t22 195.5l113 528q10 55 12 97.5t-29.5 68t-101.5 25.5h-35q-8 0 -14 10t-4 21zM696 1546q0 45 31 77 t76 32q43 0 73.5 -32t30.5 -77q0 -43 -31.5 -75.5t-72.5 -32.5q-43 0 -75 32.5t-32 75.5zM1038 1548q0 45 32 77t75 32q45 0 75.5 -32t30.5 -77t-30.5 -77.5t-75.5 -32.5q-43 0 -75 32.5t-32 77.5z" />
<glyph unicode="&#xdd;" horiz-adv-x="1308" d="M211 1300q4 23 22 23q195 -10 439 0q20 -6 14 -25q-4 -25 -12 -24q-70 -6 -91.5 -14.5t-22.5 -38t30 -99.5l209 -477q6 -16 8 -18t24 18l377 438q80 92 80 125q0 59 -127 66q-8 4 -8 15t7 23.5t18 10.5q205 -10 362 0q8 0 15.5 -4t5.5 -12q-4 -18 -13 -27 q-68 -27 -102.5 -50.5t-93.5 -94.5l-521 -598l-63 -308q-20 -100 4.5 -137t130.5 -35q49 0 58 -2q14 -2 5.5 -30.5t-16.5 -28.5q-291 8 -618 0q-8 4 -8 16.5t7 27.5t17 15q129 6 164 29q47 33 72 147l65 308l-258 587q-37 86 -69.5 115t-92.5 33q-25 0 -18 26zM872 1479 q78 250 86 297q8 20 39 20q90 4 133 0q14 2 23.5 -5.5t-0.5 -23.5q-27 -37 -71 -90t-106.5 -123.5t-72.5 -83.5q-6 -6 -14 -7t-13.5 3t-3.5 13z" />
<glyph unicode="&#xde;" horiz-adv-x="1173" d="M96 27q2 12 3 16t5.5 7t7.5 2t13 0t22 3q61 10 91 52.5t53 148.5l166 836q12 68 12 90q0 94 -127 94q-29 0 -25 31q6 27 41 22q25 0 104 -1t167 -1t180 2q16 4 22.5 -7t-0.5 -24q-2 -14 -18 -20q-78 -6 -118 -44t-60 -120q-6 -25 4 -36t23.5 -12t50.5 -1h18 q143 0 220 -17.5t143 -66.5q135 -105 135 -283q0 -115 -47 -201.5t-126 -139t-174.5 -78t-199.5 -25.5q-2 0 -24.5 -1t-33 0t-26.5 4t-21.5 11t-3.5 21q4 18 10.5 21t26 -1t33.5 -4q221 0 328 166q74 113 73 256q0 94 -37.5 162.5t-103.5 91.5q-61 23 -231 23q-49 0 -64 -31 l-149 -744q-18 -96 6 -136t127 -40q25 0 29 -6t0 -20q0 -2 -2.5 -10.5t-3.5 -10.5l-3 -6t-6 -5t-11 -2t-17 -1q-285 8 -465 0q-25 0 -17 35z" />
<glyph unicode="&#xdf;" horiz-adv-x="913" d="M-389 -383q0 27 19.5 44t45.5 17q39 0 101 -47q63 -53 106 -53q39 0 78 33t64 86q47 109 79 301l109 623q51 299 96 423q41 119 113 213q59 78 145 126.5t168 48.5q100 0 169 -74.5t69 -183.5q0 -88 -51.5 -167t-137.5 -124q-53 -29 -98 -41q-10 -2 -15 -8.5t-2 -11.5 t13 -9q182 -94 182 -311q0 -236 -172 -414q-113 -117 -231 -117q-51 0 -84 22.5t-33 61.5q0 27 17.5 44.5t39.5 17.5q37 0 91 -58q23 -23 43 -22q76 0 129 123t53 301q0 184 -94 278q-31 31 -72 54q-23 16 -21 32q2 18 25 21q90 18 147 63q133 106 134 291q0 80 -40 130 t-102 50q-59 0 -118.5 -46t-92.5 -117q-59 -127 -114 -451l-80 -461q-57 -330 -148 -516q-53 -109 -131 -190q-96 -96 -213 -97q-76 0 -131 33t-55 82z" />
<glyph unicode="&#xe0;" horiz-adv-x="851" d="M76 199q0 158 108.5 325.5t274.5 263.5q145 84 332 89q10 0 12 -19l-121 -612l-4 -19q-4 -18 -8 -36.5t-6 -38t2 -30.5t14 -9q27 4 84 69q12 14 27 29q16 16 24 -6q6 -19 -4 -35q-82 -90 -104 -113q-86 -82 -125 -82q-66 0 -62 113q2 57 21 137q4 18 -3.5 19.5 t-19.5 -13.5q-246 -256 -315 -256q-51 0 -89 68t-38 156zM213 242q0 -63 19.5 -105.5t43.5 -42.5q29 0 285 242l80 395q6 10 4 20.5t-16 8.5q-125 -14 -221 -80q-88 -59 -141.5 -180t-53.5 -258zM424 1338.5q6 7.5 18 7.5h152q20 0 22 -7q2 0 2 -2t3 -4l98 -311q2 -4 -2 -7 t-12 -3q-16 0 -23 8l-252 299q-12 12 -6 19.5z" />
<glyph unicode="&#xe1;" horiz-adv-x="851" d="M76 199q0 158 108.5 325.5t274.5 263.5q145 84 332 89q10 0 12 -19l-121 -612l-4 -19q-4 -18 -8 -36.5t-6 -38t2 -30.5t14 -9q27 4 84 69q12 14 27 29q16 16 24 -6q6 -19 -4 -35q-82 -90 -104 -113q-86 -82 -125 -82q-66 0 -62 113q2 57 21 137q4 18 -3.5 19.5 t-19.5 -13.5q-246 -256 -315 -256q-51 0 -89 68t-38 156zM213 242q0 -63 19.5 -105.5t43.5 -42.5q29 0 285 242l80 395q6 10 4 20.5t-16 8.5q-125 -14 -221 -80q-88 -59 -141.5 -180t-53.5 -258zM485 1030q78 250 86 297q8 20 39 21q88 6 133 0q14 2 23.5 -5.5t-0.5 -23.5 q-27 -37 -71 -89t-107.5 -126t-71.5 -82q-6 -6 -14 -7t-13.5 3t-3.5 12z" />
<glyph unicode="&#xe2;" horiz-adv-x="851" d="M76 199q0 158 108.5 325.5t274.5 263.5q145 84 332 89q10 0 12 -19l-121 -612l-4 -19q-4 -18 -8 -36.5t-6 -38t2 -30.5t14 -9q27 4 84 69q12 14 27 29q16 16 24 -6q6 -19 -4 -35q-82 -90 -104 -113q-86 -82 -125 -82q-66 0 -62 113q2 57 21 137q4 18 -3.5 19.5 t-19.5 -13.5q-246 -256 -315 -256q-51 0 -89 68t-38 156zM213 242q0 -63 19.5 -105.5t43.5 -42.5q29 0 285 242l80 395q6 10 4 20.5t-16 8.5q-125 -14 -221 -80q-88 -59 -141.5 -180t-53.5 -258zM373 979q-12 2 0 14l299 301q16 18 45 19q12 2 48 0t42 -2q31 -2 37 -31 l69 -281q4 -20 -10 -20h-12l-162 195q-10 12 -27 2l-305 -197h-24z" />
<glyph unicode="&#xe3;" horiz-adv-x="851" d="M76 199q0 158 108.5 325.5t274.5 263.5q145 84 332 89q10 0 12 -19l-121 -612l-4 -19q-4 -18 -8 -36.5t-6 -38t2 -30.5t14 -9q27 4 84 69q12 14 27 29q16 16 24 -6q6 -19 -4 -35q-82 -90 -104 -113q-86 -82 -125 -82q-66 0 -62 113q2 57 21 137q4 18 -3.5 19.5 t-19.5 -13.5q-246 -256 -315 -256q-51 0 -89 68t-38 156zM213 242q0 -63 19.5 -105.5t43.5 -42.5q29 0 285 242l80 395q6 10 4 20.5t-16 8.5q-125 -14 -221 -80q-88 -59 -141.5 -180t-53.5 -258zM289 1034q23 248 192 248q70 0 181.5 -71.5t146.5 -71.5q70 0 90 121 q2 20 23 20q18 0 18 -27q0 -106 -54.5 -177.5t-135.5 -71.5q-76 0 -185.5 71.5t-142.5 71.5q-39 0 -58.5 -26.5t-33.5 -98.5q-2 -16 -25 -16q-18 0 -16 28z" />
<glyph unicode="&#xe4;" horiz-adv-x="851" d="M76 199q0 158 107.5 324.5t273.5 262.5q141 82 329 86q10 0 13 -18l-121 -610q-18 -88 -19 -109q0 -27 17 -26q25 0 84 67q16 16 24 29q10 20 23 -2q18 -25 0 -33q-4 -4 -22.5 -24.5t-32 -35t-34 -37t-37.5 -38t-36.5 -29.5t-36 -22.5t-28.5 -8.5q-68 0 -64 113 q0 12 12 92q2 10 5.5 25.5t5.5 26t4 16.5l-6 2q4 2 4 4h-9l3 -2h-3l-2 -2q-252 -274 -329 -275q-51 0 -88 68t-37 156zM209 242q0 -66 19.5 -110t45.5 -44q18 0 142 111q82 74 143 135q20 92 86 420q-2 6 -10 6q-129 -12 -229 -80q-90 -61 -143.5 -181t-53.5 -257zM303 1098 q0 45 31 76.5t76 31.5q43 0 74.5 -31.5t31.5 -76.5t-31.5 -77t-74.5 -32q-45 0 -76 32t-31 77zM643 1100q0 45 32 76.5t77 31.5t75.5 -31.5t30.5 -76.5q0 -47 -30.5 -79t-75.5 -32t-77 33t-32 78z" />
<glyph unicode="&#xe5;" horiz-adv-x="851" d="M76 199q0 158 108.5 325.5t274.5 263.5q145 84 332 89q10 0 12 -19l-121 -612l-4 -19q-4 -18 -8 -36.5t-6 -38t2 -30.5t14 -9q27 4 84 69q12 14 27 29q16 16 24 -6q6 -19 -4 -35q-82 -90 -104 -113q-86 -82 -125 -82q-66 0 -62 113q2 57 21 137q4 18 -3.5 19.5 t-19.5 -13.5q-246 -256 -315 -256q-51 0 -89 68t-38 156zM213 242q0 -63 19.5 -105.5t43.5 -42.5q29 0 285 242l80 395q6 10 4 20.5t-16 8.5q-125 -14 -221 -80q-88 -59 -141.5 -180t-53.5 -258zM420 1145q0 82 58.5 141.5t137.5 59.5q82 0 138.5 -58.5t56.5 -142.5 t-56.5 -141.5t-138.5 -57.5q-80 0 -138 58.5t-58 140.5zM496 1145q0 -51 34.5 -87t86 -36t87 36t35.5 87t-35.5 88t-87 37t-86 -36t-34.5 -89z" />
<glyph unicode="&#xe6;" horiz-adv-x="1193" d="M76 209q0 254 221 456.5t498 202.5q29 0 18 -32l-14 -66q-2 -16 3 -15t13 9q117 106 234 106q76 0 125 -41.5t49 -107.5q0 -70 -54.5 -131.5t-150.5 -104.5q-137 -61 -266 -96q-18 -2 -23 -24q-12 -63 -12 -115q0 -86 42 -140.5t105 -54.5q76 0 236 105q14 0 22 -8 q6 -12 2 -25q-223 -156 -356 -156q-82 0 -138.5 75t-56.5 179q0 25 -24 2q-104 -98 -156 -141q-135 -113 -178 -113q-27 0 -53 25q-86 68 -86 211zM213 264q0 -82 21.5 -130t52.5 -48q63 0 295 233l84 416q4 16 1 23.5t-22 5.5q-119 -18 -203 -68q-106 -63 -167.5 -179 t-61.5 -253zM750 465q-4 -18 5 -22.5t21 -0.5q37 12 70 25q98 35 164 82q41 29 66.5 76t25.5 92t-25.5 72.5t-66.5 27.5q-170 0 -260 -352z" />
<glyph unicode="&#xe7;" horiz-adv-x="614" d="M40 -384q-1 3 3 13q0 8 12 9q102 -4 157.5 31.5t55.5 99.5q0 66 -88 75q-10 10 -4 23l41 84q6 10 4 20.5t-10 12.5q-63 16 -100 75.5t-37 145.5q0 123 56 276.5t168 275.5t241 122q49 0 79.5 -22.5t30.5 -59.5q0 -33 -17.5 -54.5t-43.5 -21.5q-33 0 -99 37q-39 20 -55 20 q-68 0 -125 -145q-23 -59 -44 -138t-38.5 -179.5t7 -168t94.5 -67.5q96 0 200 127q12 23 37 -6q16 -18 10 -33q-150 -174 -299 -188h-16q-4 -2 -12 -13l-6 -10q-6 -10 1 -17.5t17 -7.5q35 -6 64.5 -40.5t29.5 -84.5q0 -80 -75.5 -140t-225.5 -56q-12 2 -13 5z" />
<glyph unicode="&#xe8;" horiz-adv-x="745" d="M78 270q0 233 143.5 423t321.5 190q80 0 126 -40t46 -110q0 -150 -180 -241q-55 -31 -158 -62q-31 -10 -73 -21.5t-52 -13.5q-20 -8 -21 -24q-10 -49 -10 -109q0 -92 45 -145.5t117 -50.5q90 2 233 114q18 16 27 -6q12 -25 -4 -43q-88 -76 -183.5 -116t-166.5 -40 q-88 0 -149.5 85t-61.5 210zM258 485q-2 -12 7 -15t26 3q113 27 192 66q115 59 123 170q4 47 -21.5 78.5t-72.5 29.5q-109 -4 -164 -102q-47 -88 -49 -94q-23 -51 -41 -136zM321 1339.5q5 6.5 15 6.5h151q20 0 25 -7q0 -2 4 -6l96 -311q2 -4 -1 -7t-11 -3q-16 0 -22 8 l-254 299q-8 14 -3 20.5z" />
<glyph unicode="&#xe9;" horiz-adv-x="745" d="M78 270q0 233 143.5 423t321.5 190q80 0 126 -40t46 -110q0 -150 -180 -241q-55 -31 -158 -62q-31 -10 -73 -21.5t-52 -13.5q-20 -8 -21 -24q-10 -49 -10 -109q0 -92 45 -145.5t117 -50.5q90 2 233 114q18 16 27 -6q12 -25 -4 -43q-88 -76 -183.5 -116t-166.5 -40 q-88 0 -149.5 85t-61.5 210zM258 485q-2 -12 7 -15t26 3q113 27 192 66q115 59 123 170q4 47 -21.5 78.5t-72.5 29.5q-109 -4 -164 -102q-47 -88 -49 -94q-23 -51 -41 -136zM420 1030q8 25 28.5 92.5t38 125t21.5 79.5q8 20 37 21q90 4 135 0q14 2 22 -5.5t-2 -23.5 q-59 -82 -249 -297q-6 -6 -14.5 -7t-13.5 3t-3 12z" />
<glyph unicode="&#xea;" horiz-adv-x="745" d="M78 270q0 233 143.5 423t321.5 190q80 0 126 -40t46 -110q0 -150 -180 -241q-55 -31 -158 -62q-31 -10 -73 -21.5t-52 -13.5q-20 -8 -21 -24q-10 -49 -10 -109q0 -92 45 -145.5t117 -50.5q90 2 233 114q18 16 27 -6q12 -25 -4 -43q-88 -76 -183.5 -116t-166.5 -40 q-88 0 -149.5 85t-61.5 210zM256 979q-12 2 0 14l299 301q16 18 45 19q12 2 48 0t42 -2q31 -2 37 -31l70 -281q4 -20 -11 -20h-12l-162 195q-10 12 -26 2l-305 -197h-25zM258 485q-2 -12 7 -15t26 3q113 27 192 66q115 59 123 170q4 47 -21.5 78.5t-72.5 29.5 q-109 -4 -164 -102q-47 -88 -49 -94q-23 -51 -41 -136z" />
<glyph unicode="&#xeb;" horiz-adv-x="745" d="M78 270q0 233 143.5 423t321.5 190q80 0 126 -40t46 -110q0 -150 -180 -241q-55 -31 -158 -62q-31 -10 -73 -21.5t-52 -13.5q-20 -8 -21 -24q-10 -49 -10 -109q0 -92 45 -145.5t117 -50.5q90 2 233 114q18 16 27 -6q12 -25 -4 -43q-88 -76 -183.5 -116t-166.5 -40 q-88 0 -149.5 85t-61.5 210zM252 1098q0 43 29.5 72.5t70.5 29.5t71 -29.5t30 -72.5q0 -41 -30 -72t-71 -31t-70.5 31t-29.5 72zM258 485q-2 -12 7 -15t26 3q113 27 192 66q115 59 123 170q4 47 -21.5 78.5t-72.5 29.5q-109 -4 -164 -102q-47 -88 -49 -94q-23 -51 -41 -136z M578 1100q0 43 29.5 72.5t72.5 29.5q41 0 69.5 -29.5t28.5 -72.5t-28.5 -74t-69.5 -31q-43 0 -72.5 31t-29.5 74z" />
<glyph unicode="&#xec;" horiz-adv-x="522" d="M107.5 646q-1.5 11 3.5 18q186 207 253.5 206.5t38.5 -125.5l-118 -591q-12 -63 8 -64q16 0 61 49t70 82q6 8 17.5 4t16.5 -13t-1 -19q-57 -74 -129 -140q-88 -82 -133 -82q-84 0 -52 160l105 531q0 2 3 11t5 18t3 20.5t-1 17.5t-8 6q-14 0 -34.5 -20.5t-44.5 -49 t-36 -36.5q-10 -8 -18 -1t-9.5 18zM122 1339.5q5 6.5 15 6.5h152q20 0 24 -7l2 -2v-4l99 -311q2 -4 -1 -7t-12 -3q-16 0 -24 8l-252 299q-8 14 -3 20.5z" />
<glyph unicode="&#xed;" horiz-adv-x="522" d="M107.5 646q-1.5 11 3.5 18q186 207 253.5 206.5t38.5 -125.5l-118 -591q-12 -63 8 -64q16 0 61 49t70 82q6 8 17.5 4t16.5 -13t-1 -19q-57 -74 -129 -140q-88 -82 -133 -82q-84 0 -52 160l105 531q0 2 3 11t5 18t3 20.5t-1 17.5t-8 6q-14 0 -34.5 -20.5t-44.5 -49 t-36 -36.5q-10 -8 -18 -1t-9.5 18zM313 1030q78 248 86 297q8 20 39 21q90 4 133 0q16 4 24.5 -4.5t-1.5 -24.5q-59 -82 -250 -297q-6 -6 -14 -7t-13.5 3t-3.5 12z" />
<glyph unicode="&#xee;" horiz-adv-x="522" d="M80 979q-12 2 0 14l299 301q16 18 45 19q12 2 48 0t42 -2q31 -2 37 -31l70 -281q4 -20 -11 -20h-12l-162 195q-10 12 -26 2l-306 -197h-24zM107.5 646q-1.5 11 3.5 18q186 207 253.5 206.5t38.5 -125.5l-118 -591q-12 -63 8 -64q16 0 61 49t70 82q6 8 17.5 4t16.5 -13 t-1 -19q-57 -74 -129 -140q-88 -82 -133 -82q-84 0 -52 160l105 531q0 2 3 11t5 18t3 20.5t-1 17.5t-8 6q-14 0 -34.5 -20.5t-44.5 -49t-36 -36.5q-10 -8 -18 -1t-9.5 18z" />
<glyph unicode="&#xef;" horiz-adv-x="522" d="M107.5 646q-1.5 11 3.5 18q186 207 253.5 206.5t38.5 -125.5l-118 -591q-12 -63 8 -64q16 0 61 49t70 82q6 8 17.5 4t16.5 -13t-1 -19q-57 -74 -129 -140q-88 -82 -133 -82q-84 0 -52 160l105 531q0 2 3 11t5 18t3 20.5t-1 17.5t-8 6q-14 0 -34.5 -20.5t-44.5 -49 t-36 -36.5q-10 -8 -18 -1t-9.5 18zM111 1098q0 45 30.5 76.5t75.5 31.5q43 0 74 -31.5t31 -76.5q0 -43 -32 -75t-73 -32q-45 0 -75.5 32t-30.5 75zM453 1100q0 45 31.5 76.5t76.5 31.5q43 0 74 -31.5t31 -76.5t-31 -77t-74 -32q-45 0 -76.5 32t-31.5 77z" />
<glyph unicode="&#xf0;" horiz-adv-x="868" d="M94 305q0 291 283 481q127 86 215 86q25 0 47 -12q6 -2 11 8.5t5 18.5q-10 113 -45 194q-4 6 -15 11.5t-17 3.5l-191 -62q-8 -2 -13 1t-7 5l-2 4l-5 15q0 10 13 18l178 53q25 12 12 37q-25 43 -47 65.5t-84 67.5q-16 8 -12 29l8 14q12 16 37 9q113 -47 199 -158 q12 -20 41 -14l131 43q20 8 24 -11l6 -24l-139 -47q-25 -6 -10 -31q74 -129 80 -323.5t-44.5 -375t-174 -309.5t-287.5 -129q-82 0 -139.5 97.5t-57.5 234.5zM238 313q0 -113 39.5 -184.5t99.5 -71.5q104 0 184 144.5t80 337.5q0 102 -46 174.5t-108 72.5q-96 0 -172.5 -144 t-76.5 -329z" />
<glyph unicode="&#xf1;" horiz-adv-x="960" d="M100 582q-12 25 0 41q193 260 262 256q51 -2 31 -105q-37 -195 -63 -315q-4 -14 0 -14.5t22 22.5q8 10 60.5 80.5t87.5 114t87 100.5t100 87t87 30q88 0 88 -127q0 -59 -16 -125l-123 -473q-23 -80 -4 -84q16 -6 94 80q51 59 78 92q19 20 29 10q4 -6 7 -10t3 -9.5v-7.5 t-3 -7t-4 -7t-6.5 -9t-7.5 -9q-72 -100 -148.5 -159t-125.5 -59q-94 0 -55 160l133 533q25 98 -21 98q-14 0 -33.5 -12.5t-44 -35t-48 -48t-53.5 -61.5t-52.5 -65.5t-50 -67.5t-44 -60.5t-38 -52t-25.5 -35.5l-63 -312q-4 -27 -12.5 -33t-32.5 -6h-58q-47 0 -33 41l132 658 q0 27 -7 26q-4 0 -8 -2q-10 -6 -47 -53t-51 -67q-4 -4 -12.5 -3t-10.5 5zM260 975q66 266 258 266q80 0 182 -84q70 -59 115 -59q37 0 62.5 30.5t56.5 114.5q2 8 24 8q12 0 15 -6q2 -6 2 -16q-2 -4 -2 -10q-23 -111 -91.5 -173.5t-158.5 -62.5q-84 0 -180 82q-76 63 -115 63 q-59 0 -111 -112q0 -4 -2 -6l-2 -9l-2 -8q-4 -8 -6 -14q-10 -10 -29 -14q-16 0 -16 10z" />
<glyph unicode="&#xf2;" horiz-adv-x="815" d="M78 317.5q0 131.5 73.5 256t206.5 214.5q131 90 213 91q72 0 133.5 -97.5t61.5 -220.5q0 -195 -113 -342q-47 -61 -121.5 -120.5t-148.5 -90.5q-72 -33 -115 -33q-70 0 -130 105.5t-60 237zM223 309q0 -102 41 -175t96 -73q102 0 183.5 144t81.5 330q0 109 -46.5 181 t-111.5 72q-96 0 -170 -144t-74 -335zM373 1338.5q6 7.5 18 7.5h152q18 0 22 -7l2 -2q2 -2 2 -4l99 -311q2 -4 -2 -7t-13 -3q-16 0 -22 8l-252 299q-12 12 -6 19.5z" />
<glyph unicode="&#xf3;" horiz-adv-x="815" d="M78 317.5q0 131.5 73.5 256t206.5 214.5q131 90 213 91q72 0 133.5 -97.5t61.5 -220.5q0 -195 -113 -342q-47 -61 -121.5 -120.5t-148.5 -90.5q-72 -33 -115 -33q-70 0 -130 105.5t-60 237zM223 309q0 -102 41 -175t96 -73q102 0 183.5 144t81.5 330q0 109 -46.5 181 t-111.5 72q-96 0 -170 -144t-74 -335zM475 1030q78 250 86 297q8 20 39 21q86 4 133 0q14 2 23.5 -5.5t-0.5 -23.5q-49 -70 -252 -297q-4 -6 -12.5 -7t-13.5 3t-3 12z" />
<glyph unicode="&#xf4;" horiz-adv-x="815" d="M78 317.5q0 131.5 73.5 256t206.5 214.5q131 90 213 91q72 0 133.5 -97.5t61.5 -220.5q0 -195 -113 -342q-47 -61 -121.5 -120.5t-148.5 -90.5q-72 -33 -115 -33q-70 0 -130 105.5t-60 237zM223 309q0 -102 41 -175t96 -73q102 0 183.5 144t81.5 330q0 109 -46.5 181 t-111.5 72q-96 0 -170 -144t-74 -335zM287 979q-12 2 0 14l299 301q16 18 45 19q12 2 48 0t42 -2q31 -2 37 -31l69 -281q4 -20 -10 -20h-12l-162 195q-10 12 -27 2l-305 -197h-24z" />
<glyph unicode="&#xf5;" horiz-adv-x="815" d="M78 317.5q0 131.5 73.5 256t206.5 214.5q131 90 213 91q72 0 133.5 -97.5t61.5 -220.5q0 -195 -113 -342q-47 -61 -121.5 -120.5t-148.5 -90.5q-72 -33 -115 -33q-70 0 -130 105.5t-60 237zM223 309q0 -102 41 -175t96 -73q102 0 183.5 144t81.5 330q0 109 -46.5 181 t-111.5 72q-96 0 -170 -144t-74 -335zM240 1034q23 248 192 248q70 0 181.5 -71.5t146.5 -71.5q70 0 90 121q2 20 22 20q19 0 19 -27q0 -106 -54.5 -177.5t-136.5 -71.5q-76 0 -185 71.5t-142 71.5q-39 0 -58.5 -26.5t-33.5 -98.5q-2 -16 -25 -16q-18 0 -16 28z" />
<glyph unicode="&#xf6;" horiz-adv-x="815" d="M78 317.5q0 131.5 73.5 256t206.5 214.5q131 90 213 91q72 0 133.5 -97.5t61.5 -220.5q0 -195 -113 -342q-47 -61 -121.5 -120.5t-148.5 -90.5q-72 -33 -115 -33q-70 0 -130 105.5t-60 237zM223 309q0 -102 41 -175t96 -73q102 0 183.5 144t81.5 330q0 109 -46.5 181 t-111.5 72q-96 0 -170 -144t-74 -335zM293 1098q0 45 30.5 76.5t73.5 31.5t75 -31.5t32 -76.5q0 -43 -32 -75t-75 -32t-73.5 32t-30.5 75zM635 1100q0 45 31.5 76.5t74.5 31.5q45 0 76 -31.5t31 -76.5t-31 -77t-76 -32q-43 0 -74.5 32t-31.5 77z" />
<glyph unicode="&#xf7;" horiz-adv-x="1392" d="M143 625v116h1106v-116h-1106zM614 260q0 33 22.5 55.5t57.5 22.5q33 0 54.5 -22.5t21.5 -55.5t-21.5 -55.5t-54 -22.5t-56.5 22.5t-24 55.5zM614 1118q0 31 25 51.5t55.5 20.5t53 -21.5t22.5 -54.5t-22.5 -56.5t-53.5 -23.5q-35 0 -58.5 24.5t-21.5 59.5z" />
<glyph unicode="&#xf8;" horiz-adv-x="825" d="M61 14l60 72q14 16 4 45q-31 84 -31 176q0 207 162 375q72 78 169 133t161 55q57 0 121 -75q8 -12 30 10l49 59q10 10 21 0l6 -8q10 -14 -2 -29l-53 -63q-20 -20 -10 -43q31 -68 30 -166q0 -195 -110 -340q-47 -61 -122 -120.5t-149 -90.5q-72 -33 -112 -33 q-63 0 -113 74q-14 16 -31 -2l-51 -59q-16 -16 -24 -2q-16 18 -5 32zM238 311q0 -33 2 -47q2 -18 6 -22t8 -1t14 15l330 387q16 21 6 39q-45 98 -123 98q-94 0 -168.5 -142t-74.5 -327zM266 156q43 -100 109 -101q102 0 182 143.5t80 327.5q0 35 -4 58q-6 31 -33 -2 l-326 -383q-18 -20 -8 -43z" />
<glyph unicode="&#xf9;" horiz-adv-x="997" d="M129 613.5q-2 11.5 2 19.5q41 61 126 151t130 90q68 0 35 -145l-100 -504q-6 -33 -8.5 -53t1.5 -38.5t23.5 -13.5t54.5 36q74 68 179.5 223.5t134.5 247.5q18 55 45 221q6 33 45 33q27 -2 63 0q41 0 31 -52l-129 -659q-12 -59 24 -33q14 10 35 33q55 59 76 86 q10 16 25 -4q10 -15 6 -29q-78 -98 -161 -173t-116 -75q-43 0 -43 64q0 133 66 381q6 20 0 20q-8 0 -25 -22q-123 -193 -239.5 -318t-182.5 -125q-92 0 -45 252l92 463q8 37 0 37q-12 0 -29.5 -15.5t-30.5 -32.5t-30.5 -41t-21.5 -28q-10 -12 -20.5 -10t-12.5 13.5z M409 1339.5q5 6.5 15 6.5h151q23 0 25 -7q2 0 2 -2t2 -4l96 -311q2 -4 -1 -7t-11 -3q-16 0 -22 8l-254 299q-8 14 -3 20.5z" />
<glyph unicode="&#xfa;" horiz-adv-x="997" d="M129 613.5q-2 11.5 2 19.5q41 61 126 151t130 90q68 0 35 -145l-100 -504q-6 -33 -8.5 -53t1.5 -38.5t23.5 -13.5t54.5 36q74 68 179.5 223.5t134.5 247.5q18 55 45 221q6 33 45 33q27 -2 63 0q41 0 31 -52l-129 -659q-12 -59 24 -33q14 10 35 33q55 59 76 86 q10 16 25 -4q10 -15 6 -29q-78 -98 -161 -173t-116 -75q-43 0 -43 64q0 133 66 381q6 20 0 20q-8 0 -25 -22q-123 -193 -239.5 -318t-182.5 -125q-92 0 -45 252l92 463q8 37 0 37q-12 0 -29.5 -15.5t-30.5 -32.5t-30.5 -41t-21.5 -28q-10 -12 -20.5 -10t-12.5 13.5z M549 1030q8 25 28.5 92.5t38 125t21.5 79.5q8 20 37 21q90 4 135 0q14 2 22 -5.5t-2 -23.5q-59 -82 -249 -297q-6 -6 -14.5 -7t-13.5 3t-3 12z" />
<glyph unicode="&#xfb;" horiz-adv-x="997" d="M129 613.5q-2 11.5 2 19.5q41 61 126 151t130 90q68 0 35 -145l-100 -504q-6 -33 -8.5 -53t1.5 -38.5t23.5 -13.5t54.5 36q74 68 179.5 223.5t134.5 247.5q18 55 45 221q6 33 45 33q27 -2 63 0q41 0 31 -52l-129 -659q-12 -59 24 -33q14 10 35 33q55 59 76 86 q10 16 25 -4q10 -15 6 -29q-78 -98 -161 -173t-116 -75q-43 0 -43 64q0 133 66 381q6 20 0 20q-8 0 -25 -22q-123 -193 -239.5 -318t-182.5 -125q-92 0 -45 252l92 463q8 37 0 37q-12 0 -29.5 -15.5t-30.5 -32.5t-30.5 -41t-21.5 -28q-10 -12 -20.5 -10t-12.5 13.5zM340 979 q-12 2 0 14l299 301q16 18 45 19q12 2 48 0t42 -2q31 -2 37 -31l70 -281q4 -20 -11 -20h-12l-162 195q-10 12 -26 2l-305 -197h-25z" />
<glyph unicode="&#xfc;" horiz-adv-x="997" d="M129 613.5q-2 11.5 2 19.5q41 61 126 151t130 90q68 0 35 -145l-100 -504q-6 -33 -8.5 -53t1.5 -38.5t23.5 -13.5t54.5 36q74 68 179.5 223.5t134.5 247.5q18 55 45 221q6 33 45 33q27 -2 63 0q41 0 31 -52l-129 -659q-12 -59 24 -33q14 10 35 33q55 59 76 86 q10 16 25 -4q10 -15 6 -29q-78 -98 -161 -173t-116 -75q-43 0 -43 64q0 133 66 381q6 20 0 20q-8 0 -25 -22q-123 -193 -239.5 -318t-182.5 -125q-92 0 -45 252l92 463q8 37 0 37q-12 0 -29.5 -15.5t-30.5 -32.5t-30.5 -41t-21.5 -28q-10 -12 -20.5 -10t-12.5 13.5z M369 1098q0 47 29.5 77.5t74.5 30.5q43 0 74 -31.5t31 -76.5q0 -43 -31 -75t-74 -32t-73.5 32t-30.5 75zM709 1100q0 45 31.5 76.5t76.5 31.5t75 -30.5t30 -77.5q0 -45 -30 -77t-75 -32t-76.5 32t-31.5 77z" />
<glyph unicode="&#xfd;" horiz-adv-x="894" d="M-42 -538.5q3 24.5 26 24.5q92 4 114.5 13t46.5 59q113 227 160 356q61 170 66 225q14 201 -12.5 411t-82.5 210q-35 0 -102 -94q-6 -8 -18.5 -25.5t-18.5 -26.5q-12 -16 -28 7q-12 18 -3 34q150 221 230 222q90 0 123 -272.5t18 -461.5q-2 -23 1 -27.5t8.5 1.5t15.5 22 q270 455 256 574q-2 8 -17 39q-12 25 -12 36q0 37 25.5 64t60.5 27q39 0 63.5 -31t24.5 -80q0 -72 -72 -205q-33 -57 -178 -270q-115 -166 -151 -246q-35 -78 -97.5 -230.5t-95.5 -226.5q-33 -66 -21.5 -85t97.5 -19h13t12.5 -2t9.5 -8t0 -15q-8 -27 -29 -26q-203 10 -422 2 q-14 0 -11 24.5zM518 1030q78 250 86 297q8 20 39 21q90 4 133 0q14 2 23.5 -5.5t-0.5 -23.5q-27 -37 -71 -89t-107.5 -126t-71.5 -82q-6 -6 -14.5 -7t-13.5 3t-3 12z" />
<glyph unicode="&#xfe;" horiz-adv-x="913" d="M-139 -471q10 23 45 25q78 4 116.5 38.5t55.5 122.5q2 14 295 1483q12 61 -4 62q-8 0 -21.5 -7.5t-27 -17.5t-26.5 -23.5t-22.5 -23.5t-17.5 -21l-8 -8q-23 -25 -39 -8q-18 18 8 51q80 98 161 165t118 67q57 0 24 -191l-125 -625q-6 -31 10 -30q4 0 11 8q68 86 165 179 t158 93q47 0 82 -65.5t48.5 -132t13.5 -111.5q0 -225 -155 -406.5t-347 -181.5q-41 0 -80 9q-31 10 -39 -31l-37 -193q-4 -16 -11 -53t-9 -47t-2 -34.5t8 -31t24.5 -17.5t43 -15t65.5 -7q27 0 20 -24q-4 -18 -12 -24.5t-28 -4.5q-252 8 -441 0q-10 -2 -17 6.5t-3 24.5z M299 135q-10 -57 14 -74q45 -31 101 -30q127 0 227 158.5t100 361.5q0 88 -24.5 144.5t-61.5 56.5q-35 0 -119.5 -90.5t-177.5 -225.5z" />
<glyph unicode="&#xff;" horiz-adv-x="894" d="M-42 -538.5q3 24.5 26 24.5q92 4 114.5 13t46.5 59q113 227 160 356q61 170 66 225q14 201 -12.5 411t-82.5 210q-35 0 -102 -94q-6 -8 -18.5 -25.5t-18.5 -26.5q-12 -16 -28 7q-12 18 -3 34q150 221 230 222q90 0 123 -272.5t18 -461.5q-2 -23 1 -27.5t8.5 1.5t15.5 22 q270 455 256 574q-2 8 -17 39q-12 25 -12 36q0 37 25.5 64t60.5 27q39 0 63.5 -31t24.5 -80q0 -72 -72 -205q-33 -57 -178 -270q-115 -166 -151 -246q-35 -78 -97.5 -230.5t-95.5 -226.5q-33 -66 -21.5 -85t97.5 -19h13t12.5 -2t9.5 -8t0 -15q-8 -27 -29 -26q-203 10 -422 2 q-14 0 -11 24.5zM350 1098q0 43 30 72.5t71 29.5t70.5 -29.5t29.5 -72.5q0 -41 -29.5 -72t-70.5 -31t-71 31t-30 72zM676 1100q0 43 29.5 72.5t70.5 29.5q43 0 72 -29.5t29 -72.5t-29 -74t-72 -31q-41 0 -70.5 31t-29.5 74z" />
<glyph unicode="&#x152;" horiz-adv-x="2148" d="M190 584q0 246 151 445.5t386 262.5q150 41 346 41q61 0 92 -2l174 -6h797q25 1 21 -22q-4 -41 -14.5 -92.5t-25 -107.5t-16.5 -69q-6 -6 -19.5 -6t-19.5 6v25q0 111 -50 157t-171 46h-301q-45 0 -63 -31l-105 -516q-2 -16 37 -17h101.5h141h105.5q156 4 199 140 q16 12 45 0q-6 -47 -19.5 -116t-31 -148.5t-23.5 -106.5q-4 -10 -24.5 -9t-22.5 11q2 6 2 18q0 88 -41 119t-164 31h-293q-8 -2 -19 -13.5t-13 -19.5l-82 -409q-8 -23 -4 -40.5t4 -31.5t12 -24.5t18.5 -17.5t24.5 -11t28.5 -7.5t32 -4.5t35 -1h35.5h35q92 0 139 3t116 23.5 t130 63.5q86 57 137 138q4 4 27 10q6 0 12 -3t4 -9q-12 -41 -96 -246q-6 -14 -12 -24.5t-13.5 -13.5t-10.5 -4t-12 0t-14 1h-821q-12 0 -127 -4q-111 -4 -145 -4q-279 0 -447 162.5t-168 433.5zM379 547q0 -233 118.5 -366.5t325.5 -133.5q106 0 183 41q49 27 75.5 81 t51.5 177l139 696q10 47 10 82q0 150 -250 150q-279 0 -465 -221q-188 -221 -188 -506z" />
<glyph unicode="&#x153;" horiz-adv-x="1189" d="M68 281q0 317 282 514q109 74 191 73q117 0 168 -172q6 -25 28 4q121 168 297 168q82 0 130 -41.5t48 -111.5q0 -129 -180 -219q-141 -70 -297 -111q-8 -2 -10 -2t-7 -4t-7 -12.5t-4 -22.5q-4 -31 -5 -84q0 -209 158 -209q100 0 244 111q12 12 20 -6q8 -23 -2 -33 q-195 -152 -348 -152q-127 0 -184 156q-14 37 -35 12q-55 -57 -117 -98q-113 -72 -184 -72q-76 0 -131 93.5t-55 218.5zM207 342q0 -283 153 -283q88 0 161 150t73 336q0 106 -38 174.5t-93 68.5q-100 0 -178 -131t-78 -315zM728 440.5q5 -8.5 24 -4.5q166 45 255 117 t89 158q0 47 -30 76.5t-75 29.5q-182 0 -262 -348q-6 -20 -1 -28.5z" />
<glyph unicode="&#x178;" horiz-adv-x="1308" d="M211 1300q4 23 22 23q195 -10 439 0q20 -6 14 -25q-4 -25 -12 -24q-70 -6 -91.5 -14.5t-22.5 -38t30 -99.5l209 -477q6 -16 8 -18t24 18l377 438q80 92 80 125q0 59 -127 66q-8 4 -8 15t7 23.5t18 10.5q205 -10 362 0q8 0 15.5 -4t5.5 -12q-4 -18 -13 -27 q-68 -27 -102.5 -50.5t-93.5 -94.5l-521 -598l-63 -308q-20 -100 4.5 -137t130.5 -35q49 0 58 -2q14 -2 5.5 -30.5t-16.5 -28.5q-291 8 -618 0q-8 4 -8 16.5t7 27.5t17 15q129 6 164 29q47 33 72 147l65 308l-258 587q-37 86 -69.5 115t-92.5 33q-25 0 -18 26zM690 1546 q0 45 31 77t76 32q43 0 73.5 -32t30.5 -77q0 -43 -31.5 -75.5t-72.5 -32.5q-43 0 -75 32.5t-32 75.5zM1032 1548q0 45 32 77t77 32q43 0 73.5 -32t30.5 -77t-30.5 -77.5t-73.5 -32.5q-45 0 -77 32.5t-32 77.5z" />
<glyph unicode="&#x2c6;" horiz-adv-x="694" d="M201 979q-12 2 0 14l299 301q16 18 45 19q12 2 48 0t42 -2q31 -2 37 -31l69 -281q4 -20 -10 -20h-12l-162 195q-10 12 -27 2l-305 -197h-24z" />
<glyph unicode="&#x2dc;" horiz-adv-x="694" d="M176 1034q23 248 193 248q70 0 181.5 -71.5t145.5 -71.5q70 0 90 121q2 20 23 20q18 0 18 -27q0 -106 -54 -177.5t-136 -71.5q-76 0 -185.5 71.5t-142.5 71.5q-39 0 -58.5 -26.5t-33.5 -98.5q-2 -16 -24 -16q-18 0 -17 28z" />
<glyph unicode="&#x2000;" horiz-adv-x="910" />
<glyph unicode="&#x2001;" horiz-adv-x="1821" />
<glyph unicode="&#x2002;" horiz-adv-x="910" />
<glyph unicode="&#x2003;" horiz-adv-x="1821" />
<glyph unicode="&#x2004;" horiz-adv-x="607" />
<glyph unicode="&#x2005;" horiz-adv-x="455" />
<glyph unicode="&#x2006;" horiz-adv-x="303" />
<glyph unicode="&#x2007;" horiz-adv-x="303" />
<glyph unicode="&#x2008;" horiz-adv-x="227" />
<glyph unicode="&#x2009;" horiz-adv-x="364" />
<glyph unicode="&#x200a;" horiz-adv-x="101" />
<glyph unicode="&#x2010;" horiz-adv-x="679" d="M123 382q-4 5 0 40q0 12 8 41q8 23 16 24q8 2 27 2h428q10 0 14.5 -1t8.5 -7t0 -18q-4 -37 -13 -68q-8 -23 -26 -18h-426q-33 0 -37 5z" />
<glyph unicode="&#x2011;" horiz-adv-x="679" d="M123 382q-4 5 0 40q0 12 8 41q8 23 16 24q8 2 27 2h428q10 0 14.5 -1t8.5 -7t0 -18q-4 -37 -13 -68q-8 -23 -26 -18h-426q-33 0 -37 5z" />
<glyph unicode="&#x2012;" horiz-adv-x="679" d="M123 382q-4 5 0 40q0 12 8 41q8 23 16 24q8 2 27 2h428q10 0 14.5 -1t8.5 -7t0 -18q-4 -37 -13 -68q-8 -23 -26 -18h-426q-33 0 -37 5z" />
<glyph unicode="&#x2013;" horiz-adv-x="1263" d="M121 408l6 61q0 18 25 23h970q12 0 20.5 -9.5t8.5 -17.5l-6 -66q-2 -18 -33 -18h-971q-25 0 -20 27z" />
<glyph unicode="&#x2014;" horiz-adv-x="1683" d="M180 401q0 12 3 25.5t3 22.5q0 39 35 38h1278q27 -8 31 -18q8 -4 2 -33.5t-6 -38.5q-12 -25 -29 -22h-1284q-12 -2 -23.5 5t-9.5 21z" />
<glyph unicode="&#x2018;" horiz-adv-x="608" d="M395 952q0 115 79 218.5t220 175.5q25 6 33 -17q6 -18 -14 -24q-98 -66 -139.5 -117t-41.5 -109q0 -43 27 -86q31 -47 31 -90q0 -41 -23.5 -69.5t-60.5 -28.5q-47 0 -79 42t-32 105z" />
<glyph unicode="&#x2019;" horiz-adv-x="559" d="M257 799.5q1 13.5 11 21.5q100 66 141.5 117t41.5 109q0 43 -27 83q-31 47 -31 93q0 41 23.5 68.5t60.5 27.5q47 0 80 -39.5t33 -105.5q0 -113 -80 -218.5t-219 -177.5q-14 -8 -24.5 0t-9.5 21.5z" />
<glyph unicode="&#x201a;" horiz-adv-x="608" d="M139 -338q2 14 8 19q100 68 141.5 120t41.5 111q0 41 -29 88q-33 51 -33 94q0 45 24.5 74t63.5 29q51 0 82 -43t31 -111q0 -233 -299 -408q-6 -4 -29 11q-4 2 -2 16z" />
<glyph unicode="&#x201c;" horiz-adv-x="1042" d="M426 952q0 115 79 218.5t218 175.5q15 3 25 -7q12 -23 -5 -34q-98 -66 -139 -117t-41 -109q0 -43 27 -86q31 -51 31 -90q0 -41 -24 -69.5t-60 -28.5q-49 0 -80 42t-31 105zM838 952q0 115 77.5 219.5t217.5 174.5q16 10 26 -13q4 -8 3 -17t-7 -11q-4 -4 -24.5 -19.5 t-26.5 -19.5t-24.5 -18.5t-25.5 -21.5l-21.5 -21.5t-20.5 -22.5t-15.5 -22.5t-13.5 -26t-7 -25.5t-3 -29q0 -39 28 -86q31 -51 31 -90q0 -41 -24.5 -69.5t-59.5 -28.5q-49 0 -79.5 42t-30.5 105z" />
<glyph unicode="&#x201d;" horiz-adv-x="1042" d="M331 816.5q-9 19.5 7 29.5q98 66 139 117t41 110q0 39 -26 82q-31 51 -31 92q0 43 23.5 71t60.5 28q49 0 78.5 -42t29.5 -108q0 -115 -78.5 -218.5t-216.5 -172.5q-18 -8 -27 11.5zM736 817.5q-11 22.5 14 28.5q98 66 139 117t41 110q0 43 -27 84q-31 49 -31 90 q0 43 24 71t60 28q47 0 77 -42t30 -108q0 -113 -77 -216t-216 -175q-23 -10 -34 12.5z" />
<glyph unicode="&#x201e;" horiz-adv-x="1042" d="M83 -332q1 10 7 13q100 68 141 120t41 111q0 41 -28 88q-33 49 -33 94t24.5 74t63.5 29q49 0 80 -43t31 -111q0 -119 -79 -225.5t-222 -182.5q-6 -2 -15.5 3.5t-7.5 15.5q-4 4 -3 14zM506 -352q-10 20 6 33q100 68 141 120t41 111q0 41 -28 88q-31 51 -31 94 q0 45 24.5 74t61.5 29q49 0 81 -44t32 -110q0 -119 -80 -225.5t-224 -182.5q-4 -2 -14 3.5t-10 9.5z" />
<glyph unicode="&#x2022;" horiz-adv-x="737" d="M233 664q0 109 76 185.5t182.5 76.5t183.5 -76.5t77 -185.5q0 -111 -76 -188t-184 -77q-106 0 -182.5 77t-76.5 188z" />
<glyph unicode="&#x2026;" horiz-adv-x="2082" d="M256 86q6 49 34.5 80t67.5 31t61.5 -28t22.5 -71q0 -55 -29.5 -91t-74.5 -36q-47 0 -67.5 33t-14.5 82zM948 86q6 49 35 80t70 31q86 0 86 -111q0 -53 -30 -84t-75 -31q-53 0 -71.5 37t-14.5 78zM1638 88q4 49 35 79t72 30q39 0 62.5 -28t23.5 -71q0 -53 -29.5 -90 t-75.5 -37q-47 0 -69.5 36t-18.5 81z" />
<glyph unicode="&#x202f;" horiz-adv-x="364" />
<glyph unicode="&#x2039;" horiz-adv-x="1495" d="M-356 -446q4 29 19 43t28.5 16t38.5 0q10 0 21 -7t17.5 -13.5t17.5 -18.5t15 -16q43 -39 80 -39q43 0 87 32.5t69 81.5q27 55 49 158q8 37 23.5 120t23.5 122q25 127 119 684q2 16 -4 29.5t-23 11.5l-86 6q-6 -2 -10 3t-4 17q4 25 20 35q96 8 125 27q51 240 68 284 q59 166 135 261q55 66 140 105.5t159 39.5q111 0 146 -82q29 -66 -15 -104q-27 -23 -67 -19q-31 2 -79 58.5t-91 56.5q-31 0 -68 -18.5t-55 -49.5q-49 -80 -90 -323l-29 -166q-2 -16 15.5 -27.5t35.5 -11.5h77.5h123h72.5q26 0 36 4q31 10 39 61q16 121 51 220 q55 164 132 260q55 70 134 108.5t152 38.5q61 0 114.5 -38t51.5 -85q-6 -96 -100 -76q-29 8 -72 59.5t-88 49.5q-29 0 -64.5 -19.5t-56.5 -50.5q-51 -82 -92 -323l-27 -156q-4 -18 5.5 -34.5t23.5 -18.5q82 -4 166 0q76 0 117 6q29 2 78 16q49 8 49 -8l-125 -743 q0 -4 -1 -12.5t-1 -12.5q0 -20 18 -20q43 0 142 125q8 10 19 7t18.5 -16.5t5.5 -27.5q-152 -195 -267 -195q-102 0 -76 152q12 78 33 188.5t36 201.5t30 181q12 66 -35 66q-150 4 -215 2q-20 0 -35 -10q-2 -2 -14 -27l-90 -498q-25 -139 -38.5 -200.5t-49 -180t-89 -198.5 t-128.5 -135q-100 -74 -203 -74q-63 0 -113.5 37t-42.5 77q12 68 86 60q10 0 21.5 -7t18.5 -13.5t19.5 -17.5t16.5 -15q39 -39 76 -39q45 0 89 32.5t68 81.5q27 53 58 195q27 141 37 205q18 92 114 659q4 23 -9 45.5t-36 22.5q-66 4 -123 4h-143q-70 -8 -78 -55l-86 -486 q-55 -313 -110 -444q-72 -180 -193 -268q-100 -74 -203 -74q-66 0 -115 37t-40 80z" />
<glyph unicode="&#x203a;" horiz-adv-x="1509" d="M-358 -446q6 29 21 43t28.5 16t38.5 0q12 0 24.5 -8t30.5 -27l18 -18q39 -39 78 -39q43 0 87 32.5t68.5 80t47.5 157.5q8 37 23.5 120t23.5 122q25 127 119 684q2 16 -4 29.5t-21 11.5l-86 6q-14 -4 -14 14q-2 29 20 41q94 8 125 25q39 203 68 286q59 170 135 259 q55 68 140 107.5t159 39.5q111 0 148 -82q29 -66 -15 -106q-27 -25 -69 -19q-31 2 -80 58.5t-90 56.5q-31 0 -67 -18.5t-56 -49.5q-49 -80 -90 -323l-29 -166q-2 -16 15.5 -26.5t35.5 -10.5h55h74h47h68q76 0 86 45q27 137 59 235q57 172 133 261q45 55 113 96t144.5 52 t144.5 -30q23 -10 39 -2q12 4 49 29q12 14 24.5 14t16.5 -16l-240 -1391q-8 -53 17 -53q43 0 135 115q8 10 23.5 5t21.5 -18.5t0 -25.5q-154 -197 -268 -197q-72 0 -78 78q-4 45 12 133l96 522q6 12 1 36t-23 26q-76 2 -169 0t-102 -2q-33 -8 -39 -45l-84 -494 q-20 -125 -36.5 -197.5t-50 -184t-89 -193.5t-129.5 -137q-100 -74 -202 -74q-66 0 -116 37t-42 80q4 29 20.5 43t29.5 16t38 0q10 0 21.5 -6t18.5 -12.5t19.5 -18.5t16.5 -16q39 -39 76 -39q43 0 87 31.5t68 80.5q25 47 47 158q25 121 47 242q25 125 119 684q6 35 -18 41 q-33 2 -35 2h-25q-23 0 -58.5 -1t-72.5 -1h-67.5h-42.5q-56 -4 -64 -49l-86 -486q-20 -115 -28.5 -156.5t-36 -148t-54 -164t-75 -128t-109.5 -115.5q-100 -74 -203 -74q-66 0 -116 37t-41 80zM950 899q-4 -14 1 -32.5t16 -18.5h76.5h105.5h84q45 0 51 41l84 444 q-55 98 -144 116.5t-157 -73.5q-49 -80 -90 -323z" />
<glyph unicode="&#x205f;" horiz-adv-x="455" />
<glyph unicode="&#x20ac;" horiz-adv-x="948" d="M14 481q0 18 12.5 38t28.5 20h119q0 66 14 151h-98q-29 0 -29 23q0 18 12.5 37.5t28.5 19.5h105q51 190 211 337.5t346 147.5t315 -84q20 -14 11 -55q-16 -68 -48 -237q-2 -12 -28 -13q-25 0 -25 35q0 299 -213 299q-137 0 -236.5 -117.5t-140.5 -312.5h412q29 0 29 -22 q0 -18 -12.5 -38t-28.5 -20h-414q-10 -74 -12 -151h391q29 0 29 -23q0 -18 -12.5 -37.5t-28.5 -19.5h-379q2 -186 55 -314.5t166 -128.5q104 0 191 68t139 201q8 25 30 24q29 0 23 -28q-25 -92 -59 -285q-18 8 -70 8q-20 0 -114.5 -20.5t-172.5 -20.5q-166 0 -269.5 120 t-115.5 376h-133q-29 0 -29 22z" />
<glyph unicode="&#x2122;" horiz-adv-x="2039" d="M18.5 1187q-2.5 5 1.5 38l17 151q2 20 9 25.5t32 5.5q315 -8 674 0q31 2 40 -5t11 -36l16 -147q4 -18 2 -27.5t-24 -9.5h-27q-14 84 -54 114.5t-136 30.5h-19.5h-17.5t-12.5 -2t-11.5 -6t-5 -13.5t-2 -21.5v-545q0 -76 15.5 -98.5t70.5 -28.5h14h4q4 -2 5 -28v-17 q0 -6 -3 -6q-4 -4 -32 -4q-129 4 -326 0q-29 0 -34 4t-5 25v16q0 8 8 10h13q55 8 68.5 29t13.5 96v551q0 14 -3.5 23.5t-11.5 12.5t-13 4t-20.5 0t-21.5 -1q-92 0 -131 -30.5t-55 -114.5h-31q-16 0 -18.5 5zM874 588q0 20 25 24q59 2 74.5 24.5t15.5 100.5v482 q0 84 -14 106.5t-74 24.5q-18 2 -22.5 6t-4.5 20v8q0 16 4.5 19.5t18.5 3.5q164 -6 266 -2q16 2 25 -16l248 -519q8 -14 21 -9t20 18l233 510q12 18 37 18h231q16 0 21.5 -1t11.5 -7t6 -21q0 -20 -4 -23t-26 -5q-53 -2 -67.5 -26t-14.5 -103v-482q0 -80 13 -100.5t71 -26.5 q25 -2 26 -8q2 -2 2 -20q0 -16 -6 -21.5t-24 -5.5h-351q-29 -2 -36 3t-7 26q0 12 3 17t5.5 7t12.5 2h14q57 6 71.5 30t14.5 95v430q0 18 -8 19q-4 0 -8 -10l-273 -601q-10 -18 -24 -18h-21q-8 0 -18 21l-272 585q-14 14 -17 -20v-404q0 -84 15.5 -105.5t70.5 -21.5h31 q18 0 18 -26q0 -29 -26 -29h-21q-143 6 -252 0q-27 -2 -31 2t-4 29z" />
<glyph unicode="&#x25fc;" horiz-adv-x="880" d="M0 0v881h881v-881h-881z" />
<glyph unicode="&#xfb01;" horiz-adv-x="1032" d="M-305 -451q6 29 20.5 42.5t27.5 15.5t35.5 0t53.5 -33l10 -10l11.5 -11.5l10.5 -10.5t12 -10t12.5 -7t14.5 -6t15 -4t16 -2q45 0 90.5 33.5t69.5 82.5q18 37 47 160q4 18 49 240q25 125 123 714q2 6 -3 14.5t-11 8.5h-104q-8 -2 -10.5 7t-0.5 20q4 18 19 24q98 8 129 27 q29 174 67 286q59 170 136 261q55 66 141 105.5t160 39.5q111 0 145 -80q27 -63 -16 -102q-25 -23 -66 -19q-10 2 -19.5 6.5t-19.5 12.5t-15 13t-16.5 18.5t-13.5 15.5q-47 51 -88 49q-31 0 -68.5 -18.5t-58.5 -49.5q-47 -74 -92 -325l-35 -193q-4 -20 16 -20q98 -4 191 0 q23 0 49.5 1t41.5 1t28 2q14 2 38.5 8t41.5 8q4 0 12 2t13 3t10.5 2t8.5 -1t3 -6l-129 -745q-6 -53 16 -53q45 0 148 131q8 8 18 6t17 -14.5t3 -24.5q-150 -193 -266 -193q-96 0 -71 148q31 184 104 610q6 39 -12 39q-143 4 -277 0q-6 0 -11 -2t-6 -4t-4 -10.5t-5 -10.5 l-91 -518q-20 -127 -36.5 -198.5t-51 -184t-89 -193.5t-130.5 -136q-100 -74 -203 -74q-66 0 -114.5 35.5t-40.5 76.5z" />
<glyph unicode="&#xfb02;" horiz-adv-x="997" d="M-350 -451q6 29 20.5 42.5t28.5 15.5t37 0q20 -2 51 -33l10 -10l11.5 -11.5l10.5 -10.5t12 -10t12 -7t14.5 -6t15.5 -4t16 -2q45 0 90.5 33.5t69.5 82.5q23 43 49 160q8 35 23.5 116t23.5 124q27 137 123 712q2 2 0 8.5t-8 11.5t-14 5h-105q-18 0 -14 22q4 23 25 25 q57 6 135 31q39 203 67 286q55 166 135 261q49 59 121 100t154 49t149 -43q18 6 72 41q12 14 21.5 13t11.5 -13l-246 -1419q-6 -49 19 -49q39 0 147 133q6 6 18.5 1t18.5 -16.5t0 -21.5q-152 -195 -266 -195q-68 0 -76 76q-4 37 14 131l105 561q0 27 -21 27h-297 q-10 0 -19 -7t-9 -22l-91 -514q-25 -135 -39 -199.5t-48.5 -181t-89 -196.5t-130.5 -135q-100 -74 -203 -74q-66 0 -114.5 35.5t-40.5 76.5zM430 874q-2 -8 3 -18t20 -10q137 -4 297 0q20 0 26 20l90 469q-57 102 -149 122t-160 -75q-49 -74 -94 -325z" />
<glyph unicode="&#xfb03;" horiz-adv-x="1495" d="M-356 -446q4 29 19 43t28.5 16t38.5 0q10 0 21 -7t17.5 -13.5t17.5 -18.5t15 -16q43 -39 80 -39q43 0 87 32.5t69 81.5q27 55 49 158q8 37 23.5 120t23.5 122q25 127 119 684q2 16 -4 29.5t-23 11.5l-86 6q-6 -2 -10 3t-4 17q4 25 20 35q96 8 125 27q51 240 68 284 q59 166 135 261q55 66 140 105.5t159 39.5q111 0 146 -82q29 -66 -15 -104q-27 -23 -67 -19q-31 2 -79 58.5t-91 56.5q-31 0 -68 -18.5t-55 -49.5q-49 -80 -90 -323l-29 -166q-2 -16 15.5 -27.5t35.5 -11.5h77.5h123h72.5q26 0 36 4q31 10 39 61q16 121 51 220 q55 164 132 260q55 70 134 108.5t152 38.5q61 0 114.5 -38t51.5 -85q-6 -96 -100 -76q-29 8 -72 59.5t-88 49.5q-29 0 -64.5 -19.5t-56.5 -50.5q-51 -82 -92 -323l-27 -156q-4 -18 5.5 -34.5t23.5 -18.5q82 -4 166 0q76 0 117 6q29 2 78 16q49 8 49 -8l-125 -743 q0 -4 -1 -12.5t-1 -12.5q0 -20 18 -20q43 0 142 125q8 10 19 7t18.5 -16.5t5.5 -27.5q-152 -195 -267 -195q-102 0 -76 152q12 78 33 188.5t36 201.5t30 181q12 66 -35 66q-150 4 -215 2q-20 0 -35 -10q-2 -2 -14 -27l-90 -498q-25 -139 -38.5 -200.5t-49 -180t-89 -198.5 t-128.5 -135q-100 -74 -203 -74q-63 0 -113.5 37t-42.5 77q12 68 86 60q10 0 21.5 -7t18.5 -13.5t19.5 -17.5t16.5 -15q39 -39 76 -39q45 0 89 32.5t68 81.5q27 53 58 195q27 141 37 205q18 92 114 659q4 23 -9 45.5t-36 22.5q-66 4 -123 4h-143q-70 -8 -78 -55l-86 -486 q-55 -313 -110 -444q-72 -180 -193 -268q-100 -74 -203 -74q-66 0 -115 37t-40 80z" />
<glyph unicode="&#xfb04;" horiz-adv-x="1509" d="M-358 -446q6 29 21 43t28.5 16t38.5 0q12 0 24.5 -8t30.5 -27l18 -18q39 -39 78 -39q43 0 87 32.5t68.5 80t47.5 157.5q8 37 23.5 120t23.5 122q25 127 119 684q2 16 -4 29.5t-21 11.5l-86 6q-14 -4 -14 14q-2 29 20 41q94 8 125 25q39 203 68 286q59 170 135 259 q55 68 140 107.5t159 39.5q111 0 148 -82q29 -66 -15 -106q-27 -25 -69 -19q-31 2 -80 58.5t-90 56.5q-31 0 -67 -18.5t-56 -49.5q-49 -80 -90 -323l-29 -166q-2 -16 15.5 -26.5t35.5 -10.5h55h74h47h68q76 0 86 45q27 137 59 235q57 172 133 261q45 55 113 96t144.5 52 t144.5 -30q23 -10 39 -2q12 4 49 29q12 14 24.5 14t16.5 -16l-240 -1391q-8 -53 17 -53q43 0 135 115q8 10 23.5 5t21.5 -18.5t0 -25.5q-154 -197 -268 -197q-72 0 -78 78q-4 45 12 133l96 522q6 12 1 36t-23 26q-76 2 -169 0t-102 -2q-33 -8 -39 -45l-84 -494 q-20 -125 -36.5 -197.5t-50 -184t-89 -193.5t-129.5 -137q-100 -74 -202 -74q-66 0 -116 37t-42 80q4 29 20.5 43t29.5 16t38 0q10 0 21.5 -6t18.5 -12.5t19.5 -18.5t16.5 -16q39 -39 76 -39q43 0 87 31.5t68 80.5q25 47 47 158q25 121 47 242q25 125 119 684q6 35 -18 41 q-33 2 -35 2h-25q-23 0 -58.5 -1t-72.5 -1h-67.5h-42.5q-56 -4 -64 -49l-86 -486q-20 -115 -28.5 -156.5t-36 -148t-54 -164t-75 -128t-109.5 -115.5q-100 -74 -203 -74q-66 0 -116 37t-41 80zM950 899q-4 -14 1 -32.5t16 -18.5h76.5h105.5h84q45 0 51 41l84 444 q-55 98 -144 116.5t-157 -73.5q-49 -80 -90 -323z" />
</font>
</defs>
</svg>
